Завантажити та скачати торренти українською


Час розплати (Час відплати) / Paycheck (2003) 720p 2xUkr/Eng | Sub Multi

Нові коментарі

Нова тема   Відповісти
Останній раз роздавалося TrueSupport (2016-12-06)
Автор Повідомлення
Anonymous 







2014-09-29 17:39  
Час розплати (Час відплати) / Paycheck (2003) 720p 2xUkr/Eng | Sub Multi



Жанр: фантастика, бойовик, трилер, детектив
Країна: США, Канада



Кінокомпанія: Paramount Pictures, DreamWorks SKG, Davis Entertainment, Lion Rock Productions
Режисер: Джон Ву /John Woo
Актори: Бен Аффлек / Ben Affleck, Ума Турман / Uma Thurman, Аарон Екгарт / Aaron Eckhart, Майкл С. Холл /Michael C. Hall, Джо Мортон /Joe Morton, Колм Феоре /Colm Feore, Пол Джаматті / Paul Giamatti, Кетрін Морріс / Kathryn Morris, Пітер Фрідман /Peter Friedman та інші

Сюжет:
Дія картини відбувається у не надто далекому майбутньому. Майкл Дженнінгс - найкращий спеціаліст з інженерного аналізу, котрий працює на різні корпорації. За кожне виконане завдання він отримує солідний гонорар, після чого проходить процедуру стирання пам’яті. Герой знає, що останнє завдання, робота над яким тривала майже три роки, повинно було принести йому сто мільйонів доларів. Однак банківський службовець, замість грошей, дає Майклу кілька зовсім непотрібних на перший погляд предметів. Дженнінгс уражений. Він хоче довідатися, хто дозволив це зробити, і одержує дивну відповідь: він сам! Із цього моменту життя Дженнінгса перетворюється в постійне розслідування, предметом якого стає він сам і його минуле. Він повинен не тільки знайти таємничу людину, що переслідує його, але й за сімома предметами здогадатися, над чим він працював протягом двох років... Однак це розслідування може коштувати йому життя.


Рейтинг MPAA: PG-13 - дітям до 13 років перегляд не бажаний
Вікова категорія: 12+

Тривалість: 01:58:46
Якість: 720p [CRiSC]
Відео:
кодек:
розмір кадру: 1280x546
бітрейт: 8911 кбіт/с [crf=17]

Аудіо # 1: Так Треба Продакшн на замовлення , запис з
мова: українська
переклад: багатоголосий закадровий
ролі озвучили: Дмитро Терещук (Бен Афлек / Дженнінгс), Володимир Терещук (Аарон Екгарт), Михайло Жонін (Пол Джаматті) та один жіночий голос
кодек: 2.0
бітрейт: 192 кбіт/с

Аудіо # 2: можливо ICTV
мова: українська
переклад: двоголосий закадровий
ролі озвучили: Михайло Жонін
кодек: 2.0
бітрейт: 192 кбіт/с

Аудіо # 3:
мова: англійська
переклад: оригінал
кодек: 5.1
бітрейт: 1536 кбіт/с

Аудіо # 4:
мова: англійська
переклад: коментарі режисера Джона Ву
кодек: OGG 2.0
бітрейт: 80 кбіт/с

Аудіо # 5:
мова: англійська
переклад: коментарі сценариста Діна Георгаріса
кодек: OGG 2.0
бітрейт: 80 кбіт/с

Субтитри # 1-10:
мова: англійська, чеська, французька, німецька, грецька, угорська, португальська, румунська, іспанська, шведська
тип: програмні (м'які)
формат: *.srt
MediaInfo
Код:
General
Unique ID                                : 193462525957668086950011552550422299144 (0x918B86F5A727E7B8A69EAA645B03C208)
Complete name                            : Paycheck (2003) [2xUkr,Eng sub.Multi] 720p [Hurtom & HDClub].mkv
Format                                   : Matroska
Format version                           : Version 4 / Version 2
File size                                : 9.28 GiB
Duration                                 : 1h 58mn
Overall bit rate mode                    : Variable
Overall bit rate                         : 11.2 Mbps
Movie name                               : Час розплати / Час відплати / Paycheck (2003) 720p [Hurtom & HDClub]
Encoded date                             : UTC 2014-09-29 17:27:43
Writing application                      : mkvmerge v7.2.0 ('On Every Street') 64bit built on Sep 13 2014 15:52:10
Writing library                          : libebml v1.3.0 + libmatroska v1.4.1
DURATION                                 : 01:53:12.700000000
NUMBER_OF_FRAMES                         : 754
NUMBER_OF_BYTES                          : 28992
_STATISTICS_WRITING_APP                  : mkvmerge v7.2.0 ('On Every Street') 64bit built on Sep 13 2014 15:52:10
_STATISTICS_WRITING_DATE_UTC             : 2014-09-29 17:27:43
_STATISTICS_TAGS                         : BPS DURATION NUMBER_OF_FRAMES NUMBER_OF_BYTES

Video
ID                                       : 1
Format                                   : AVC
Format/Info                              : Advanced Video Codec
Format profile                           : [email protected]
Format settings, CABAC                   : Yes
Format settings, ReFrames                : 11 frames
Codec ID                                 : V_MPEG4/ISO/AVC
Duration                                 : 1h 58mn
Bit rate                                 : 8 911 Kbps
Width                                    : 1 280 pixels
Height                                   : 546 pixels
Display aspect ratio                     : 2.35:1
Frame rate mode                          : Constant
Frame rate                               : 23.976 fps
Color space                              : YUV
Chroma subsampling                       : 4:2:0
Bit depth                                : 8 bits
Scan type                                : Progressive
Bits/(Pixel*Frame)                       : 0.532
Stream size                              : 7.39 GiB (80%)
Title                                    : Час розплати / Час відплати / Paycheck / Час расплаты (2003) 720p [CRiSC]
Writing library                          : core 142 r2431 ac76440
Encoding settings                        : cabac=1 / ref=11 / deblock=1:-3:-3 / analyse=0x3:0x133 / me=tesa / subme=10 / psy=1 / psy_rd=1.00:0.00 / mixed_ref=1 / me_range=24 / chroma_me=1 / trellis=2 / 8x8dct=1 / cqm=0 / deadzone=21,11 / fast_pskip=0 / chroma_qp_offset=-2 / threads=12 / lookahead_threads=3 / sliced_threads=0 / nr=0 / decimate=1 / interlaced=0 / bluray_compat=0 / constrained_intra=0 / bframes=12 / b_pyramid=2 / b_adapt=2 / b_bias=0 / direct=3 / weightb=1 / open_gop=0 / weightp=2 / keyint=240 / keyint_min=23 / scenecut=40 / intra_refresh=0 / rc_lookahead=120 / rc=crf / mbtree=0 / crf=17.0 / qcomp=0.65 / qpmin=0 / qpmax=69 / qpstep=4 / vbv_maxrate=62500 / vbv_bufsize=78125 / crf_max=0.0 / nal_hrd=none / filler=0 / ip_ratio=1.10 / pb_ratio=1.10 / aq=1:1.00
Language                                 : English
Default                                  : Yes
Forced                                   : No

Audio #1
ID                                       : 2
Format                                   : AC-3
Format/Info                              : Audio Coding 3
Mode extension                           : CM (complete main)
Format settings, Endianness              : Big
Codec ID                                 : A_AC3
Duration                                 : 1h 58mn
Bit rate mode                            : Constant
Bit rate                                 : 192 Kbps
Channel(s)                               : 2 channels
Channel positions                        : Front: L R
Sampling rate                            : 48.0 KHz
Bit depth                                : 16 bits
Compression mode                         : Lossy
Stream size                              : 163 MiB (2%)
Title                                    : MVO [TakTrebaProduction-Inter] 2.0 192 kbps [Hurtom-_oles]
Language                                 : Ukrainian
Default                                  : Yes
Forced                                   : No

Audio #2
ID                                       : 3
Format                                   : AC-3
Format/Info                              : Audio Coding 3
Mode extension                           : CM (complete main)
Format settings, Endianness              : Big
Codec ID                                 : A_AC3
Duration                                 : 1h 58mn
Bit rate mode                            : Constant
Bit rate                                 : 192 Kbps
Channel(s)                               : 2 channels
Channel positions                        : Front: L R
Sampling rate                            : 48.0 KHz
Bit depth                                : 16 bits
Compression mode                         : Lossy
Stream size                              : 163 MiB (2%)
Title                                    : DVO [ICTV?] 2.0 192 kbps [Hurtom-_oles, TNU-MAKAPOHHIK]
Language                                 : Ukrainian
Default                                  : No
Forced                                   : No

Audio #3
ID                                       : 4
Format                                   :
Format/Info                              : Digital Theater Systems
Mode                                     : 16
Format settings, Endianness              : Big
Codec ID                                 : A_DTS
Duration                                 : 1h 58mn
Bit rate mode                            : Constant
Bit rate                                 : 1 510 Kbps
Channel(s)                               : 6 channels
Channel positions                        : Front: L C R, Side: L R, LFE
Sampling rate                            : 48.0 KHz
Bit depth                                : 24 bits
Compression mode                         : Lossy
Stream size                              : 1.25 GiB (13%)
Title                                    : Original 5.1 1536 kbps
Language                                 : English
Default                                  : No
Forced                                   : No

Audio #4
ID                                       : 5
Format                                   : Vorbis
Format settings, Floor                   : 1
Codec ID                                 : A_VORBIS
Duration                                 : 1h 58mn
Bit rate mode                            : Variable
Bit rate                                 : 80.0 Kbps
Channel(s)                               : 2 channels
Sampling rate                            : 48.0 KHz
Compression mode                         : Lossy
Stream size                              : 68.0 MiB (1%)
Title                                    : comments with director John Woo
Writing library                          : libVorbis 1.2 (UTC 2007-06-22)
Language                                 : English
Default                                  : No
Forced                                   : No
Writing application                      : VLC media player

Audio #5
ID                                       : 6
Format                                   : Vorbis
Format settings, Floor                   : 1
Codec ID                                 : A_VORBIS
Duration                                 : 1h 58mn
Bit rate mode                            : Variable
Bit rate                                 : 80.0 Kbps
Channel(s)                               : 2 channels
Sampling rate                            : 48.0 KHz
Compression mode                         : Lossy
Stream size                              : 68.0 MiB (1%)
Title                                    : comments with writers Dean Georgaris
Writing library                          : libVorbis 1.2 (UTC 2007-06-22)
Language                                 : English
Default                                  : No
Forced                                   : No
Writing application                      : VLC media player

Text #1
ID                                       : 7
Format                                   : UTF-8
Codec ID                                 : S_TEXT/UTF8
Codec ID/Info                            : UTF-8 Plain Text
Language                                 : English
Default                                  : No
Forced                                   : No

Text #2
ID                                       : 8
Format                                   : UTF-8
Codec ID                                 : S_TEXT/UTF8
Codec ID/Info                            : UTF-8 Plain Text
Language                                 : Czech
Default                                  : No
Forced                                   : No

Text #3
ID                                       : 9
Format                                   : UTF-8
Codec ID                                 : S_TEXT/UTF8
Codec ID/Info                            : UTF-8 Plain Text
Language                                 : French
Default                                  : No
Forced                                   : No

Text #4
ID                                       : 10
Format                                   : UTF-8
Codec ID                                 : S_TEXT/UTF8
Codec ID/Info                            : UTF-8 Plain Text
Language                                 : German
Default                                  : No
Forced                                   : No

Text #5
ID                                       : 11
Format                                   : UTF-8
Codec ID                                 : S_TEXT/UTF8
Codec ID/Info                            : UTF-8 Plain Text
Language                                 : Greek
Default                                  : No
Forced                                   : No

Text #6
ID                                       : 12
Format                                   : UTF-8
Codec ID                                 : S_TEXT/UTF8
Codec ID/Info                            : UTF-8 Plain Text
Language                                 : Hungarian
Default                                  : No
Forced                                   : No

Text #7
ID                                       : 13
Format                                   : UTF-8
Codec ID                                 : S_TEXT/UTF8
Codec ID/Info                            : UTF-8 Plain Text
Language                                 : Portuguese
Default                                  : No
Forced                                   : No

Text #8
ID                                       : 14
Format                                   : UTF-8
Codec ID                                 : S_TEXT/UTF8
Codec ID/Info                            : UTF-8 Plain Text
Language                                 : Romanian
Default                                  : No
Forced                                   : No

Text #9
ID                                       : 15
Format                                   : UTF-8
Codec ID                                 : S_TEXT/UTF8
Codec ID/Info                            : UTF-8 Plain Text
Language                                 : Spanish
Default                                  : No
Forced                                   : No

Text #10
ID                                       : 16
Format                                   : UTF-8
Codec ID                                 : S_TEXT/UTF8
Codec ID/Info                            : UTF-8 Plain Text
Language                                 : Swedish
Default                                  : No
Forced                                   : No

Menu
00:00:00.000                             : :00:00:00.000
00:06:33.518                             : :00:06:33.518
00:09:28.109                             : :00:09:28.109
00:12:03.431                             : :00:12:03.431
00:15:07.740                             : :00:15:07.740
00:18:15.136                             : :00:18:15.136
00:25:13.887                             : :00:25:13.887
00:29:32.354                             : :00:29:32.354
00:34:15.387                             : :00:34:15.387
00:40:01.899                             : :00:40:01.899
00:43:32.610                             : :00:43:32.610
00:47:51.869                             : :00:47:51.869
00:57:11.303                             : :00:57:11.303
01:00:26.498                             : :01:00:26.498
01:06:05.170                             : :01:06:05.170
01:10:56.586                             : :01:10:56.586
01:17:42.950                             : :01:17:42.950
01:20:41.795                             : :01:20:41.795
01:25:46.183                             : :01:25:46.183
01:32:33.173                             : :01:32:33.173
01:39:58.576                             : :01:39:58.576
01:50:29.623                             : :01:50:29.623




Джерела та подяки: &
ріп відео, оригінальні звук та субтитри - CRiSC (HDbits), madoff (HDClub); українські доріжки - _oles, MAKAPOHHIK - зведення, _gt (torrents.net.ua), xSlim - запис з ТБ; українізований постер - Shkval (Musketeer) (всі - Гуртом).


ЗАЛИШАЙТЕСЬ ЯКОМОГА ДОВШЕ НА РОЗДАЧІ!

СКАЧАВ САМ - ДАЙ СКАЧАТИ ІНШИМ


Срібний реліз (на рейтинг впливає 50% завантаженого)
 Трекер:    Зареєстрований   

Завантажити / скачати фільм українською



відео для новачків



 Зареєстрований:   2014-09-29 19:44
 Розмір:   9.28 GB 
 Оцінка фільму:   5.5/10 (Голосів: 20)
   
Інші релізи
   Час розплати (Час відплати) / Paycheck (2003) 2xUkr/Eng | Sub Eng _oles  6 / 1   2.5 GB   2012-05-30 16:18 
   Час відплати / Paycheck (2003) 1080p Ukr/Eng prodig  1 / 0   9.07 GB   2009-06-24 11:58 
   Час відплати / Paycheck (2003) Ukr/Eng Бодя  3 / 0   1.92 GB   2009-05-11 13:00 
bot 
робот


З нами з: 30.09.07
Востаннє: 26.05.05
Повідомлень: 16002

2014-09-29 19:40  
Тему перенесено з Анонси релізів до форуму Фільми в HD


igor911

Ваш часовий пояс: GMT + 2 Години

Нова тема   Відповісти