Завантажити та скачати торренти українською


Ґодзілла / Godzilla (2014) 1080p 3D [Half OverUnder] Ukr/Eng | Sub Ukr/Eng

Нові коментарі

Нова тема   Відповісти
Автор Повідомлення
3d_reliz 
Частий відвідувач


З нами з: 28.09.14
Востаннє: 15.03.16
Повідомлень: 35

2014-09-29 11:50  
Ґодзілла / Godzilla (2014) 1080p 3D [Half OverUnder] Ukr/Eng | Sub Ukr/Eng

Ґодзілла / Godzilla (2014) 1080p 3D [Half OverUnder] Ukr/Eng | Sub Ukr/Eng


Жанр: екшн, фентезі, бойовик, фантастика, пригодницький, трилер
Країна: США



Кінокомпанія: Disruption Entertainment, Legendary Pictures, Toho Company, Warner Bros. Pictures
Режисер: Гарет Едвардс / Gareth Edwards
Актори: Аарон Тейлор-Джонсон / Aaron Taylor-Johnson, Елізабет Олсен / Elizabeth Olsen, Браян Кренстон / Bryan Cranston, Віктор Расук / Victor Rasuk, Жюльєт Бінош / Juliette Binoche, Саллі Гокінс / Sally Hawkins, Кен Ватанабе / Ken Watanabe, Девід Стретейрн / David Strathairn, С.Дж. Адамс / CJ Adams, Річард Т. Джонс / Richard T. Jones та інші.

Сюжет:
Зло часто з'являється там, де його найменше очікують, але що жахливо – воно може бути надзвичайно небезпечним і сильним. Культовий монстр усіх часів і народів повертається... Людська еволюція завжди сильно впливала не тільки на наш рід, але і на світ, який нас оточує. Коли Форда Броуді і його товаришів десантували на місце бою, хіба міг хлопець припустити, з чим їм належить зіткнутися? Прадавнє створіння, яке не зупиняється ні перед чим, аби відновити рівновагу у природі, яку було порушено завдяки людям...


Тривалість: 02:03:07
Якість:
Відео:
кодек:
розмір кадру: 1920 х 1080
бітрейт: 10,3 мб/с

Аудіо # 1:
мова: українська
переклад: професійний дубльований
кодек: 5.1
бітрейт: 448 кб/с

Аудіо # 2:
мова: англійська
переклад: оригінал
кодек: 5.1
бітрейт: 1509 кб/с

Джерело озвучення:


Субтитри:
мова: українська
тип: програмні (м'які)
формат: *.srt

Субтитри:
мова: англійська
тип: програмні (м'які)
формат: *.srt
MediaInfo
General
Unique ID : 244794334414661659700501775733114494402 (0xB829AC83D44688F7881175EC19835DC2)
Complete name : E:\3D_film\Godzilla.(2014) 1080p 3D [UKR_ENG] sub ukr_eng.mkv
Format : Matroska
Format version : Version 1
File size : 10.7 GiB
Duration : 2h 3mn
Overall bit rate : 12.5 Mbps
Movie name : Godzilla (2014) 3D
Encoded date : UTC 2014-09-29 08:43:48
Writing application : mkvmerge v2.4.1 ('Use Me') built on Dec 5 2008 18:30:05
Writing library : libebml v0.7.7 + libmatroska v0.8.1
Attachment : Yes
Video #1
ID : 1
Format : AVC
Format/Info : Advanced Video Codec
Format profile : [email protected]
Format settings, CABAC : Yes
Format settings, ReFrames : 4 frames
Codec ID : V_MPEG4/ISO/AVC
Duration : 2h 3mn
Bit rate : 10.3 Mbps
Width : 1 920 pixels
Height : 1 080 pixels
Display aspect ratio : 16:9
Frame rate mode : Constant
Frame rate : 23.976 fps
Color space : YUV
Chroma subsampling : 4:2:0
Bit depth : 8 bits
Scan type : Progressive
Bits/(Pixel*Frame) : 0.207
Stream size : 8.83 GiB (82%)
Title : Годзилла-Godzilla.(2014)..[1080p].3D
Writing library : core 142 r2389 956c8d8
Encoding settings : cabac=1 / ref=4 / deblock=1:-3:-3 / analyse=0x3:0x113 / me=umh / subme=10 / psy=1 / psy_rd=1.00:0.00 / mixed_ref=1 / me_range=32 / chroma_me=1 / trellis=2 / 8x8dct=1 / cqm=0 / deadzone=21,11 / fast_pskip=0 / chroma_qp_offset=-4 / threads=6 / lookahead_threads=1 / sliced_threads=0 / nr=0 / decimate=0 / interlaced=0 / bluray_compat=0 / constrained_intra=0 / bframes=6 / b_pyramid=2 / b_adapt=2 / b_bias=0 / direct=3 / weightb=1 / open_gop=0 / weightp=2 / keyint=250 / keyint_min=23 / scenecut=40 / intra_refresh=0 / rc=crf / mbtree=0 / crf=16.0 / qcomp=0.80 / qpmin=0 / qpmax=69 / qpstep=4 / frame-packing=4 / ip_ratio=1.30 / pb_ratio=1.30 / aq=2:0.90
Language : English
Default : Yes
Forced : No
Audio #2
ID : 2
Format : AC-3
Format/Info : Audio Coding 3
Mode extension : CM (complete main)
Format settings, Endianness : Big
Codec ID : A_AC3
Duration : 2h 3mn
Bit rate mode : Constant
Bit rate : 448 Kbps
Channel(s) : 6 channels
Channel positions : Front: L C R, Side: L R, LFE
Sampling rate : 48.0 KHz
Bit depth : 16 bits
Compression mode : Lossy
Stream size : 395 MiB (4%)
Title : 5.1 / 448 kbps / Dub (Blu-ray CEE)
Language : Ukrainian
Default : Yes
Forced : No
Audio #3
ID : 3
Format :
Format/Info : Digital Theater Systems
Mode : 16
Format settings, Endianness : Big
Codec ID : A_DTS
Duration : 2h 3mn
Bit rate mode : Constant
Bit rate : 1 509 Kbps
Channel(s) : 6 channels
Channel positions : Front: L C R, Side: L R, LFE
Sampling rate : 48.0 KHz
Bit depth : 24 bits
Compression mode : Lossy
Delay relative to video : 11ms
Stream size : 1.30 GiB (12%)
Title : 5.1 / 1536 kbps / Original
Language : English
Default : No
Forced : No
Text #4
ID : 4
Format : UTF-8
Codec ID : S_TEXT/UTF8
Codec ID/Info : UTF-8 Plain Text
Title : Forced
Language : Ukrainian
Default : Yes
Forced : No
Text #5
ID : 5
Format : UTF-8
Codec ID : S_TEXT/UTF8
Codec ID/Info : UTF-8 Plain Text
Title : Full
Language : Ukrainian
Default : No
Forced : No
Text #6
ID : 6
Format : UTF-8
Codec ID : S_TEXT/UTF8
Codec ID/Info : UTF-8 Plain Text
Title : Full
Language : English
Default : No
Forced : No
Text #7
ID : 7
Format : UTF-8
Codec ID : S_TEXT/UTF8
Codec ID/Info : UTF-8 Plain Text
Title : SDH
Language : English
Default : No
Forced : No
Text #8
ID : 8
Format : UTF-8
Codec ID : S_TEXT/UTF8
Codec ID/Info : UTF-8 Plain Text
Title : SDH (Colored)
Language : English
Default : No
Forced : No
Скріншоти



Джерело:
Особиста оцінка: 8 - мені сподобалося


 Трекер:    Зареєстрований   

Завантажити / скачати фільм українською



відео для новачків



 Зареєстрований:   2014-09-29 11:50
 Розмір:   10.73 GB 
 Оцінка фільму:   7.7/10 (Голосів: 6)
   
Інші релізи
   Ґодзілла / Годзілла / Godzilla (2014) DVD5 Eng/Rus/Ukr | Sub Eng/Rus yurka30  0 / 0   4.34 GB   2014-09-17 23:38 
   Ґодзілла / Godzilla (2014) 1080p Ukr/Eng | Sub Ukr/Eng 11FrYkT  4 / 1   9.84 GB   2014-09-11 17:10 
   Ґодзілла / Godzilla (2014) AVC Ukr | Sub Ukr/Eng patriot2305  2 / 0   1.94 GB   2014-09-11 12:05 
   Ґодзілла / Godzilla (2014) patriot2305  6 / 0   1.46 GB   2014-09-11 08:24 
   Ґодзілла / Godzilla (2014) 720p Ukr/Eng | Sub Ukr/Eng 11FrYkT  1 / 1   4.98 GB   2014-09-11 06:22 
   Ґодзілла / Godzilla (2014) Ukr/Eng | Sub Ukr/Eng Gelios  2 / 0   2.17 GB   2014-09-11 06:13 
   Ґодзілла / Godzilla (2014) 720p Ukr/Eng | sub Ukr/Eng DеLight  1 / 0   2.9 GB   2014-08-27 15:23 
Ваш часовий пояс: GMT + 2 Години

Нова тема   Відповісти