Завантажити та скачати торренти українською


Свідок / Witness (1985) 720p Ukr/Eng | Sub Eng

Нові коментарі

Нова тема   Відповісти
Автор Повідомлення
Anonymous 







2014-09-28 23:50  
Свідок / Witness (1985) 720p Ukr/Eng | Sub Eng



Жанр: трилер, драма, мелодрама, кримінальний
Країна: США

2 Оскари та премія Британської кіноакадемії

Кінокомпанія: Paramount Pictures, Edward S. Feldman Production
Режисер: Пітер Вір / Peter Weir
Актори: Гаррісон Форд / Harrison Ford, Келлі МакГіліс / Kelly McGillis, Йозеф Зомер / Josef Sommer, Лукас Хаас / Lukas Haas, Ян Рубес / Jan Rubes, Олександр Годунов, Дені Гловер / Danny Glover, Брент Дженінгс / Brent Jennings, Петті ЛюПон / Patti LuPone, Енгус МакІннес / Angus MacInnes, Віґо Мортенсен / Viggo Mortensen

Сюжет:
Дев'ятирічний хлопчик стає свідком жорстокого вбивства: прямо на його очах в туалеті філадельфійського вокзалу дві людини безжалісно зарізали молодого чоловіка. Виявляється, убитий був таємним агентом відділу по боротьбі з наркотиками. Тепер хлопчина - єдиний свідок, який може допомогти детективові Джону Буку знайти злочинців.
Обличчя вбивць назавжди закарбувалися в дитячу пам'ять. І хлопчик побачив їх знову, коли його привезли для надання свідчень в місцеву поліцейську дільницю - він побачив фото вбивць на дошці пошани поліцейського управління. З цієї хвилини за маленьким свідком та його єдиним захисником, інспектором Буком, починається полювання.


Рейтинг MPAA: R - особам до 17 років обов'язкова присутність батьків або дорослого опікуна
Вікова категорія: 16+

Тривалість: 01:52:24
Якість: 720p [TayTO]
Відео:
кодек:
розмір кадру: 1280x720
бітрейт: 8378 кбіт/с [crf=18.2]

Аудіо # 1:
мова: українська
переклад: двоголосий закадровий
ролі озвучили: Дмитро Завадський та Катерина Брайковська
кодек: 1.0
бітрейт: 192 кбіт/с

Аудіо # 2:
мова: англійська
переклад: оригінал
кодек: 5.1
бітрейт: 1536 кбіт/с

Субтитри:
мова: англійська (повні, SDH)
тип: програмні (м'які)
формат: *.srt

Збережено оригінальні розділи, як на Blu-ray.
MediaInfo
Код:
General
Unique ID                                : 235895481826760989209390005035479228870 (0xB177D1354D6FC34ABECC885EF11E61C6)
Complete name                            : Witness (1985) [Ukr,Eng sub.Eng] 720p [Hurtom & HDClub].mkv
Format                                   : Matroska
Format version                           : Version 4 / Version 2
File size                                : 8.07 GiB
Duration                                 : 1h 52mn
Overall bit rate                         : 10.3 Mbps
Movie name                               : Свідок / Witness (1985) 720p [Hurtom & HDClub]
Encoded date                             : UTC 2014-09-29 04:15:00
Writing application                      : mkvmerge v7.2.0 ('On Every Street') 64bit built on Sep 13 2014 15:52:10
Writing library                          : libebml v1.3.0 + libmatroska v1.4.1
DURATION                                 : 01:43:50.640000000
NUMBER_OF_FRAMES                         : 739
NUMBER_OF_BYTES                          : 24182
_STATISTICS_WRITING_APP                  : mkvmerge v7.2.0 ('On Every Street') 64bit built on Sep 13 2014 15:52:10
_STATISTICS_WRITING_DATE_UTC             : 2014-09-29 04:15:00
_STATISTICS_TAGS                         : BPS DURATION NUMBER_OF_FRAMES NUMBER_OF_BYTES

Video
ID                                       : 1
Format                                   : AVC
Format/Info                              : Advanced Video Codec
Format profile                           : [email protected]
Format settings, CABAC                   : Yes
Format settings, ReFrames                : 9 frames
Codec ID                                 : V_MPEG4/ISO/AVC
Duration                                 : 1h 52mn
Bit rate                                 : 8 378 Kbps
Width                                    : 1 280 pixels
Height                                   : 720 pixels
Display aspect ratio                     : 16:9
Frame rate mode                          : Constant
Frame rate                               : 23.976 fps
Color space                              : YUV
Chroma subsampling                       : 4:2:0
Bit depth                                : 8 bits
Scan type                                : Progressive
Bits/(Pixel*Frame)                       : 0.379
Stream size                              : 6.58 GiB (81%)
Title                                    : Свідок / Witness /Свидетель (1985) 720p [TayTO]
Writing library                          : core 142 r2389kMod 956c8d8
Encoding settings                        : cabac=1 / ref=9 / deblock=1:-3:-3 / analyse=0x3:0x133 / me=tesa / subme=11 / psy=1 / fade_compensate=0.00 / psy_rd=1.15:0.00 / mixed_ref=1 / me_range=24 / chroma_me=1 / trellis=2 / 8x8dct=1 / cqm=0 / deadzone=21,11 / fast_pskip=0 / chroma_qp_offset=-2 / threads=12 / lookahead_threads=3 / sliced_threads=0 / nr=0 / decimate=1 / interlaced=0 / bluray_compat=0 / constrained_intra=0 / fgo=0 / bframes=11 / b_pyramid=2 / b_adapt=2 / b_bias=0 / direct=3 / weightb=1 / open_gop=0 / weightp=2 / keyint=250 / keyint_min=23 / scenecut=40 / intra_refresh=0 / rc=crf / mbtree=0 / crf=18.2000 / qcomp=0.70 / qpmin=0 / qpmax=69 / qpstep=4 / ip_ratio=1.40 / pb_ratio=1.30 / aq=1:0.60
Language                                 : English
Default                                  : Yes
Forced                                   : No
Matrix coefficients                      : BT.709

Audio #1
ID                                       : 2
Format                                   : AC-3
Format/Info                              : Audio Coding 3
Mode extension                           : CM (complete main)
Format settings, Endianness              : Big
Codec ID                                 : A_AC3
Duration                                 : 1h 52mn
Bit rate mode                            : Constant
Bit rate                                 : 192 Kbps
Channel(s)                               : 1 channel
Channel positions                        : Front: C
Sampling rate                            : 48.0 KHz
Bit depth                                : 16 bits
Compression mode                         : Lossy
Stream size                              : 154 MiB (2%)
Title                                    : DVO [Novyj] 1.0 192 kbps [Hurtom-Romario_O, Merdiff]
Language                                 : Ukrainian
Default                                  : Yes
Forced                                   : No

Audio #2
ID                                       : 3
Format                                   :
Format/Info                              : Digital Theater Systems
Mode                                     : 16
Format settings, Endianness              : Big
Codec ID                                 : A_DTS
Duration                                 : 1h 52mn
Bit rate mode                            : Constant
Bit rate                                 : 1 509 Kbps
Channel(s)                               : 6 channels
Channel positions                        : Front: L C R, Side: L R, LFE
Sampling rate                            : 48.0 KHz
Bit depth                                : 24 bits
Compression mode                         : Lossy
Stream size                              : 1.18 GiB (15%)
Title                                    : Original 5.1 1536 kbps
Language                                 : English
Default                                  : No
Forced                                   : No

Text #1
ID                                       : 4
Format                                   : UTF-8
Codec ID                                 : S_TEXT/UTF8
Codec ID/Info                            : UTF-8 Plain Text
Title                                    : Eng full
Language                                 : English
Default                                  : No
Forced                                   : No

Text #2
ID                                       : 5
Format                                   : UTF-8
Codec ID                                 : S_TEXT/UTF8
Codec ID/Info                            : UTF-8 Plain Text
Title                                    : Eng SDH
Language                                 : English
Default                                  : No
Forced                                   : No

Menu
00:00:00.000                             : :Funeral Rites
00:05:49.222                             : :The Journey
00:09:51.965                             : :Material Witness
00:16:12.304                             : :John Book
00:22:45.696                             : :Positive I.D.
00:30:45.552                             : :Watch Your Back
00:46:17.565                             : :Gun of the Hand
00:50:10.297                             : :Plain John
00:56:28.385                             : :Honest Work
01:04:16.143                             : :Breaking the Rules
01:10:32.728                             : :Barn Raising
01:18:12.104                             : :The Storm
01:21:27.090                             : :Lost the Meaning
01:26:58.588                             : :Twilight
01:30:59.120                             : :It's Over
01:45:52.845                             : :Be Careful Among the English
01:49:02.327                             : :Credits




Джерела та подяки: &
ріп відео, оригінальні звук та субтитри - TayTO (HDbits); українська доріжка - Romario_O - зведення, Merdiff - запис з ТБ; українізований постер - thefir (всі - Гуртом).


ЗАЛИШАЙТЕСЬ ЯКОМОГА ДОВШЕ НА РОЗДАЧІ!

СКАЧАВ САМ - ДАЙ СКАЧАТИ ІНШИМ


Срібний реліз (на рейтинг впливає 50% завантаженого)
 Трекер:    Зареєстрований   

Завантажити / скачати фільм українською



відео для новачків



 Зареєстрований:   2014-09-29 06:37
 Розмір:   8.07 GB 
 Оцінка фільму:   3.9/10 (Голосів: 15)
   
Інші релізи
   Свідок / Witness (1985) Ukr/Eng | Sub Eng Romario_O  2 / 0   2.18 GB   2010-04-19 21:08 
intrino 
Частий відвідувач


З нами з: 09.06.09
Востаннє: 02.12.16
Повідомлень: 28

2014-09-30 21:03  
тут є інша доріжка,можливо можна підігнати? http://toloka.to/t13019
Anonymous 







2014-09-30 21:09  
igor911 написано:
українська доріжка - Romario_O - зведення, Merdiff - запис з ТБ

це і є та "інша" доріжка, тільки вона виявилась двоголоскою і тут чесне моно, так як було записано з ТБ, замість дутого 5.1 чи псевдостерео.

ratbol 
Модератор HD


З нами з: 03.02.09
Востаннє: 01.12.16
Повідомлень: 1088

2014-10-01 21:09  
По ТБ зазвичай якраз "дуте стерео" (але правильніше називати подвійне моно). 2.0 взагалі краще робити, щоб підтримка на пристроях була кращою.
Anonymous 







2014-10-01 21:18  
Зрозуміло, на майбутнє перероблятиму у 2.0.
Ваш часовий пояс: GMT + 2 Години

Нова тема   Відповісти