Завантажити та скачати торренти українською


Патруль часу / Timecop (1994) 720p Ukr/Eng | Sub Eng

Нові коментарі

Нова тема   Відповісти
Автор Повідомлення
Anonymous 







2014-09-28 20:55  
Патруль часу / Timecop (1994) 720p Ukr/Eng | Sub Eng



Жанр: фантастика, бойовик, трилер, мелодрама
Країна: Канада, США, Японія



Кінокомпанія: Largo Entertainment, JVC Entertainment Networks, Signature Pictures, Renaissance Pictures, Dark Horse Entertainment
Режисер: Пiтер Хаямс / Peter Hyams
Актори: Жан-Клод Ван Дамм / Jean-Claude Van Damme, Рон Сiлвер / Ron Silver, Мiа Сара / Mia Sara, Брюс МакГілл / Bruce McGill, Глорiя Рубен / Gloria Reuben та інші

Сюжет:
У 2004 р. винахiд вченого зробив можливими подорожi у часi - але лише в минуле. Скористатись можливiстю покращити за допомогою машини часу своє життя намагаються рiзнi злочинцi, тому створюється "Служба з охорони часу", де працює Макс Вокер (Ван Дамм). Його головним противником стає амбiцiйний сенатор (Сiлвер), який мрiє стати президентом США...

Для Ван Дамма це справжнє досягнення i один з найкращих фiльмiв, хоча в акторському планi його повнiстю затьмарив Сiлвер.


Рейтинг MPAA: R - особам до 17 років обов'язкова присутність батьків або дорослого опікуна
Вікова категорія: 16+

Тривалість: 01:37:55
Якість: 720p
Відео:
кодек:
розмір кадру: 1280 х 542
бітрейт: 4025 кбіт/с

Аудіо # 1:
мова: українська
переклад: двоголосий закадровий
ролі озвучили: Остап Ступка та Лариса Руснак
кодек: 2.0
бітрейт: 192 кбіт/с

Аудіо # 2:
мова: англійська
переклад: оригінал
кодек: 5.1
бітрейт: 1536 кбіт/с

Субтитри # 1-2:
мова: англійська (повні, SDH)
тип: програмні (м'які)
формат: *.srt

Збережено оригінальні розділи, як на Blu-ray.
MediaInfo та log
Код:
[info]: frame I:1182 Avg QP:14.51 size: 85755
[info]: frame P:32624 Avg QP:17.21 size: 37697
[info]: frame B:107051 Avg QP:18.91 size: 15161
[info]: consecutive B-frames: 3.2% 4.4% 8.1% 22.8% 15.4% 33.9% 5.0% 3.2% 1.3% 1.4% 0.6% 0.8%


Код:
General
Unique ID                                : 249127785518438618924815274113316604093 (0xBB6C442665815AA387FEE53B4FFEC8BD)
Complete name                            : Timecop (1994) [Ukr,Eng sub.Eng] 720p [Hurtom].mkv
Format                                   : Matroska
Format version                           : Version 4 / Version 2
File size                                : 3.92 GiB
Duration                                 : 1h 37mn
Overall bit rate                         : 5 727 Kbps
Movie name                               : Патруль часу / Timecop (1994) 720p [Hurtom]
Encoded date                             : UTC 2014-09-28 18:10:58
Writing application                      : mkvmerge v7.2.0 ('On Every Street') 64bit built on Sep 13 2014 15:52:10
Writing library                          : libebml v1.3.0 + libmatroska v1.4.1
DURATION                                 : 01:37:54.912000000
NUMBER_OF_FRAMES                         : 550773
NUMBER_OF_BYTES                          : 1108155740
_STATISTICS_WRITING_APP                  : mkvmerge v7.2.0 ('On Every Street') 64bit built on Sep 13 2014 15:52:10
_STATISTICS_WRITING_DATE_UTC             : 2014-09-28 18:10:58
_STATISTICS_TAGS                         : BPS DURATION NUMBER_OF_FRAMES NUMBER_OF_BYTES

Video
ID                                       : 1
Format                                   : AVC
Format/Info                              : Advanced Video Codec
Format profile                           : [email protected]
Format settings, CABAC                   : Yes
Format settings, ReFrames                : 9 frames
Codec ID                                 : V_MPEG4/ISO/AVC
Duration                                 : 1h 37mn
Bit rate                                 : 4 025 Kbps
Width                                    : 1 280 pixels
Height                                   : 542 pixels
Display aspect ratio                     : 2.35:1
Frame rate mode                          : Constant
Frame rate                               : 23.976 fps
Color space                              : YUV
Chroma subsampling                       : 4:2:0
Bit depth                                : 8 bits
Scan type                                : Progressive
Bits/(Pixel*Frame)                       : 0.242
Stream size                              : 2.68 GiB (68%)
Title                                    : Патруль часу / Timecop / Патруль времени (1994) 720p [0ptimus]
Writing library                          : core 133 r2334 a3ac64b
Encoding settings                        : cabac=1 / ref=9 / deblock=1:-3:-3 / analyse=0x3:0x113 / me=umh / subme=11 / psy=1 / psy_rd=1.00:0.20 / mixed_ref=1 / me_range=48 / chroma_me=1 / trellis=2 / 8x8dct=1 / cqm=0 / deadzone=21,11 / fast_pskip=0 / chroma_qp_offset=-3 / threads=4 / lookahead_threads=1 / sliced_threads=0 / nr=0 / decimate=0 / interlaced=0 / bluray_compat=0 / constrained_intra=0 / bframes=11 / b_pyramid=2 / b_adapt=2 / b_bias=0 / direct=3 / weightb=1 / open_gop=0 / weightp=2 / keyint=240 / keyint_min=23 / scenecut=40 / intra_refresh=0 / rc_lookahead=40 / rc=2pass / mbtree=0 / bitrate=4025 / ratetol=1.0 / qcomp=0.60 / qpmin=0 / qpmax=69 / qpstep=4 / cplxblur=20.0 / qblur=0.5 / vbv_maxrate=50000 / vbv_bufsize=50000 / nal_hrd=none / ip_ratio=1.40 / pb_ratio=1.30 / aq=1:1.00
Language                                 : English
Default                                  : Yes
Forced                                   : Yes
DURATION                                 : 01:37:54.911000000
NUMBER_OF_FRAMES                         : 140857
NUMBER_OF_BYTES                          : 2954224583
_STATISTICS_WRITING_APP                  : mkvmerge v7.2.0 ('On Every Street') 64bit built on Sep 13 2014 15:52:10
_STATISTICS_WRITING_DATE_UTC             : 2014-09-28 18:10:58
_STATISTICS_TAGS                         : BPS DURATION NUMBER_OF_FRAMES NUMBER_OF_BYTES

Audio #1
ID                                       : 2
Format                                   : AC-3
Format/Info                              : Audio Coding 3
Mode extension                           : CM (complete main)
Format settings, Endianness              : Big
Codec ID                                 : A_AC3
Duration                                 : 1h 37mn
Bit rate mode                            : Constant
Bit rate                                 : 192 Kbps
Channel(s)                               : 2 channels
Channel positions                        : Front: L R
Sampling rate                            : 48.0 KHz
Bit depth                                : 16 bits
Compression mode                         : Lossy
Stream size                              : 134 MiB (3%)
Title                                    : MVO [2+2] 2.0 192 kbps [Hurtom-gig_Panas]
Language                                 : Ukrainian
Default                                  : Yes
Forced                                   : No

Audio #2
ID                                       : 3
Format                                   :
Format/Info                              : Digital Theater Systems
Mode                                     : 16
Format settings, Endianness              : Big
Codec ID                                 : A_DTS
Duration                                 : 1h 37mn
Bit rate mode                            : Constant
Bit rate                                 : 1 509 Kbps
Channel(s)                               : 6 channels
Channel positions                        : Front: L C R, Side: L R, LFE
Sampling rate                            : 48.0 KHz
Bit depth                                : 24 bits
Compression mode                         : Lossy
Stream size                              : 1.03 GiB (26%)
Title                                    : Original 5.1 1536 kbps
Language                                 : English
Default                                  : No
Forced                                   : No

Text #1
ID                                       : 4
Format                                   : UTF-8
Codec ID                                 : S_TEXT/UTF8
Codec ID/Info                            : UTF-8 Plain Text
Title                                    : Eng full
Language                                 : English
Default                                  : No
Forced                                   : No

Text #2
ID                                       : 5
Format                                   : UTF-8
Codec ID                                 : S_TEXT/UTF8
Codec ID/Info                            : UTF-8 Plain Text
Title                                    : Eng SDH
Language                                 : English
Default                                  : No
Forced                                   : No

Menu
00:00:00.000                             : en:Main Titles: Gainsville, GA 1863
00:07:51.053                             : en:There's Never Enough Time..
00:13:25.221                             : en:Ruin in the Rain
00:15:39.271                             : en:Wall Street October 30, 1929
00:22:49.534                             : en:Justice in Time
00:24:07.863                             : en:Trouble with the T.E.C.
00:34:07.086                             : en:Killers for Company
00:39:00.588                             : en:A Blast to the Past
00:43:38.240                             : en:Back to 1994
00:47:14.790                             : en:McComb's Future
01:01:00.156                             : en:The Only Way Back
01:07:07.398                             : en:The Fugitive From the Future
01:14:08.902                             : en:A Fight for the Future
01:26:11.416                             : en:McComb Gets Tougher
01:29:40.083                             : en:The New Future
01:33:24.056                             : en:"Time Won't Let Me"
01:37:47.862                             : en:




Джерела та подяки: &
ріп відео, оригінальні звук та субтитри - 0ptimus, HDClub; українська доріжка - gig_Panas - запис та зведення (Гуртом).


ЗАЛИШАЙТЕСЬ ЯКОМОГА ДОВШЕ НА РОЗДАЧІ!

СКАЧАВ САМ - ДАЙ СКАЧАТИ ІНШИМ


Срібний реліз (на рейтинг впливає 50% завантаженого)
 Трекер:    Зареєстрований   

Завантажити / скачати фільм українською



відео для новачків



 Зареєстрований:   2014-09-28 20:55
 Розмір:   3.92 GB 
 Оцінка фільму:   4.3/10 (Голосів: 16)
   
Ваш часовий пояс: GMT + 2 Години

Нова тема   Відповісти