Завантажити та скачати торренти українською


Чаклунка / Maleficent (2014) 1080p 3D [Half OverUnder] Ukr/Eng

Нові коментарі

Нова тема   Відповісти
Автор Повідомлення
3d_reliz 
Частий відвідувач


З нами з: 28.09.14
Востаннє: 15.03.16
Повідомлень: 35

2014-09-28 13:31  
Чаклунка / Maleficent (2014) 1080p 3D [Half OverUnder] Ukr/Eng

Чаклунка / Maleficent (2014) 1080p 3D [Half OverUnder] Ukr/Eng


Жанр: сімейний, пригодницький, фентезі
Країна: США



Кінокомпанія: Moving Picture Company, Roth Films
Режисер: Роберт Стромберг
Актори: Анджеліна Джолі, Елль Феннінг, Джуно Темпл, Шарлто Коплі, Сем Райлі, Ханна Нью, Імелда Стонтон, Елла Пернелл, Брентон Туейтес, Джо Осмонд, Джеймі Сівес, Леслі Менвілл, Кеннет Кренем, Стівен Крі

Сюжет:
Юна чаклунка Малефісента вела відокремлене життя в зачарованому лісі, оточена казковими істотами, але одного разу все змінилося... В її світ вторглися люди, які принесли з собою руйнування і хаос, і Малефісенті довелося встати на захист своїх підданих, закликавши на допомогу могутні темні сили. У запалі боротьби Малефісента наклала страшне закляття на новонароджену дочку короля, прекрасну Аврору. Але, спостерігаючи за тим, як росте маленька принцеса, Малефісента починає сумніватися у правильності свого вчинку - адже, можливо, саме Аврора може вдихнути нове життя в чарівне лісове царство...


Тривалість: 01:37:27
Якість:
Відео:
кодек:
розмір кадру: 1920 х 1080
бітрейт: 10.5 Мб/с

Аудіо # 1
мова: українська
переклад: професійний дубльований
кодек: 5.1
бітрейт: 1510 кб/с

Аудіо # 2
мова: англійська
переклад: оригінал
кодек: 5.1
бітрейт: 448 кб/с
MediaInfo
E:\3D_film\Maleficent (2014) 1080p 3D [UKR] [Hurtom]1.mkv
General
Unique ID : 229115844779896953249881080267928994292 (0xAC5E1B4B6AAF91EB95D8DC4FEE6781F4)
Complete name : E:\3D_film\Maleficent (2014) 1080p 3D [UKR] [Hurtom]1.mkv
Format : Matroska
Format version : Version 1
File size : 8.71 GiB
Duration : 1h 37mn
Overall bit rate : 12.7 Mbps
Movie name : MALEFICENT_3D_Crop_O/U
Encoded date : UTC 2014-09-28 16:45:28
Writing application : mkvmerge v2.4.1 ('Use Me') built on Dec 5 2008 18:30:05
Writing library : libebml v0.7.7 + libmatroska v0.8.1
Video #2
ID : 2
Format : AVC
Format/Info : Advanced Video Codec
Format profile : [email protected]
Format settings, CABAC : Yes
Format settings, ReFrames : 4 frames
Codec ID : V_MPEG4/ISO/AVC
Duration : 1h 37mn
Bit rate : 10.5 Mbps
Width : 1 920 pixels
Height : 1 080 pixels
Display aspect ratio : 16:9
Frame rate mode : Constant
Frame rate : 23.976 fps
Color space : YUV
Chroma subsampling : 4:2:0
Bit depth : 8 bits
Scan type : Progressive
Bits/(Pixel*Frame) : 0.212
Stream size : 7.20 GiB (83%)
Title : Rip by I/N
Writing library : core 128 r2216M 198a7ea
Encoding settings : cabac=1 / ref=4 / deblock=1:-3:-3 / analyse=0x3:0x133 / me=umh / subme=10 / psy=1 / psy_rd=1.00:0.15 / mixed_ref=1 / me_range=32 / chroma_me=1 / trellis=2 / 8x8dct=1 / cqm=0 / deadzone=0,0 / fast_pskip=0 / chroma_qp_offset=-3 / threads=8 / lookahead_threads=1 / sliced_threads=0 / nr=0 / decimate=1 / interlaced=0 / bluray_compat=0 / constrained_intra=0 / bframes=6 / b_pyramid=2 / b_adapt=2 / b_bias=0 / direct=3 / weightb=1 / open_gop=0 / weightp=2 / keyint=230 / keyint_min=23 / scenecut=40 / intra_refresh=0 / rc_lookahead=60 / rc=crf / mbtree=1 / crf=17.0 / qcomp=0.60 / qpmin=0 / qpmax=69 / qpstep=4 / vbv_maxrate=40000 / vbv_bufsize=30000 / crf_max=30.0 / nal_hrd=none / ip_ratio=1.40 / aq=2:1.00
Default : Yes
Forced : No
Audio #1
ID : 1
Format :
Format/Info : Digital Theater Systems
Mode : 16
Format settings, Endianness : Big
Codec ID : A_DTS
Duration : 1h 37mn
Bit rate mode : Constant
Bit rate : 1 510 Kbps
Channel(s) : 6 channels
Channel positions : Front: L C R, Side: L R, LFE
Sampling rate : 48.0 KHz
Bit depth : 24 bits
Compression mode : Lossy
Delay relative to video : 911ms
Stream size : 1.03 GiB (12%)
Title : 5.1 @ 1536 kbps
Language : Ukrainian
Default : Yes
Forced : No
Audio #3
ID : 3
Format : AC-3
Format/Info : Audio Coding 3
Mode extension : CM (complete main)
Format settings, Endianness : Big
Codec ID : A_AC3
Duration : 1h 37mn
Bit rate mode : Constant
Bit rate : 448 Kbps
Channel(s) : 6 channels
Channel positions : Front: L C R, Side: L R, LFE
Sampling rate : 48.0 KHz
Bit depth : 16 bits
Compression mode : Lossy
Stream size : 313 MiB (4%)
Title : 5.1 @ 448 kbps
Language : English
Default : No
Forced : No
Скріншоти



Джерело: &
Особиста оцінка: 8 - мені сподобалося
3D перевірено з флешки на внутрішньому плеєрі телевізора LG


 Трекер:    Зареєстрований   

Завантажити / скачати фільм українською



відео для новачків



 Зареєстрований:   2014-09-28 19:07
 Розмір:   8.71 GB 
 Оцінка фільму:   9.1/10 (Голосів: 22)
   
Інші релізи
   Чаклунка / Maleficent (2014) [640 x 270] DmitryA  1 / 0   859 MB   2015-08-04 18:34 
   Чаклунка / Maleficent (2014) 1080p [60fps] Ukr/Eng | Sub Eng Estranded  1 / 0   8.53 GB   2014-10-03 11:09 
   Чаклунка / Maleficent (2014) 720p-mini (60fps) Drool  2 / 0   4.62 GB   2014-09-15 22:55 
   Чаклунка / Maleficent (2014) 1080p Ukr/Eng | Sub Eng 11FrYkT  10 / 0   10.91 GB   2014-09-14 09:00 
   Чаклунка / Maleficent (2014) 720p Ukr/Eng | Sub Eng 11FrYkT  9 / 0   4.23 GB   2014-09-14 07:21 
   Чаклунка / Maleficent (2014) Gelios  25 / 0   1.45 GB   2014-09-13 13:50 
   Чаклунка / Maleficent (2014) AVC patriot2305  8 / 0   2.01 GB   2014-09-13 03:57 
shykroman 
Частий відвідувач


З нами з: 10.07.10
Востаннє: 02.12.16
Повідомлень: 47

2014-09-28 14:40  
Щось з бітрейдом відео перегнули 100500 кб/с ;D
igor911 
Відео Гуртом
Відео Гуртом


З нами з: 18.01.08
Востаннє: 03.12.16
Повідомлень: 5113

2014-09-28 19:31  
Додай оригінальну доріжку (бажано в ) - вона обов"язкова згідно Правил (див.Додаток до релізів в якості HD). Ну і виправ бітрейт відео в описі.

Додано через 6 хвилин 38 секунд:

Також заміни в назві теми та шапці "(вертикальна стереопара)" на "[Half OverUnder]" (для зручності пошуку)

Додано через 2 години 21 хвилину 46 секунд:

Назва має бути "Чаклунка / Maleficent (2014) 1080p 3D [Half OverUnder] Ukr/Eng"

Andrei777 
Новенький


З нами з: 10.06.13
Востаннє: 17.10.16
Повідомлень: 1

2014-10-14 10:19  
на внутрішньому плеері телевізора LG не відтворюється. Добавте украінською в
3d_reliz 
Частий відвідувач


З нами з: 28.09.14
Востаннє: 15.03.16
Повідомлень: 35

2014-10-14 14:08  
пореконвертуйте в себе, бо я не маю чим... на моєму lg все відтворювало.
profession 
Новенький


З нами з: 15.06.14
Востаннє: 12.07.16
Повідомлень: 4

2014-10-15 19:24  
Щось не так з вашим файлом. На комп'ютері він розпадається, як власне і на телевізорі. До того ж, під кінець заставки "Дісней" закривається і далі не йде.
igor911 
Відео Гуртом
Відео Гуртом


З нами з: 18.01.08
Востаннє: 03.12.16
Повідомлень: 5113

2014-10-15 20:01  
Цей фільм завантажило більше півсотні користувачів і лише ви написали про проблеми з файлом. Імовірно, проблеми з вашого боку, починаючи від недокачаного торента і закінчуючи бед-блоками на жорстому диску.
profession 
Новенький


З нами з: 15.06.14
Востаннє: 12.07.16
Повідомлень: 4

2014-10-15 21:32  
Прошу вибачення. Вперше таке бачу. Завантажив фільм (було 100%), зробив повторне хешування, і загубилися 0,5%.
Bochys 
Частий відвідувач


З нами з: 09.09.10
Востаннє: 02.12.16
Повідомлень: 28

2014-11-30 13:53  
Можливо хтось знає все про український дубляж, зокрема:
актори, режисер, переклад та інше.

don pedro 
Попереджень: 1
Попереджень: 1 


З нами з: 29.06.11
Востаннє: 03.12.16
Повідомлень: 8722

2014-11-30 13:55  
Bochys Малефіцієнту дублювала Ольга Сумська.
GEORGKys 
Свій


З нами з: 11.03.11
Востаннє: 26.11.16
Повідомлень: 65

2014-12-04 13:37  
Дуже вдячний за ЗD реліз, чомусь їх так мало викладають, хоч відео в 3D є, але озвучка в основному російська...
igor911 
Відео Гуртом
Відео Гуртом


З нами з: 18.01.08
Востаннє: 03.12.16
Повідомлень: 5113

2014-12-04 21:33  
GEORGKys, я теж в свій час бідкався, що мало HD відео викладають українською - і став викладати сам. Все в ваших руках.
Bochys 
Частий відвідувач


З нами з: 09.09.10
Востаннє: 02.12.16
Повідомлень: 28

2014-12-05 22:26  
За Сумську я знаю, а хто ще дублював?
ярослав_17 
Новенький


З нами з: 30.12.14
Востаннє: 11.06.16
Повідомлень: 1

2015-01-01 22:53  
в мене йде оригінальна звукова доріжка, як налаштувати українську мову на телевізорі LG?
igor911 
Відео Гуртом
Відео Гуртом


З нами з: 18.01.08
Востаннє: 03.12.16
Повідомлень: 5113

2015-01-01 23:10  
відповів у приват.

Додано через 22 секунди:

відповіді з гугла, в мене самсунг.

Додано через 6 хвилин 33 секунди:

Як вирішиш проблему - не полінись, напищи тут як вирішив, можливо, це стане в нагоді ще комусь.

stornew 
Новенький


З нами з: 19.10.10
Востаннє: 07.07.16
Повідомлень: 2

2015-01-10 21:43  
TV LG - також лише англ. доріжка. Українська - тиша.
igor911 
Відео Гуртом
Відео Гуртом


З нами з: 18.01.08
Востаннє: 03.12.16
Повідомлень: 5113

2015-01-10 22:11  
stornew написано:
TV LG - також лише англ. доріжка. Українська - тиша.

3d_reliz написано:
на моєму lg все відтворювало.

XAPOH 
Новенький


З нами з: 27.04.10
Востаннє: 22.11.16
Повідомлень: 7

2015-01-31 18:38  
В мене Філіпс, також тільки англійська. НАвіть в налаштуваннях не має української.
ata 
VIP


З нами з: 22.09.08
Востаннє: 26.11.16
Повідомлень: 338

2015-03-26 11:20  
Давайте більше ЗD релізів! Це дуже крута тема)
His_Infernal_Majesty 
Новенький


З нами з: 01.12.14
Востаннє: 02.12.16
Повідомлень: 11

2015-12-31 00:20  
проблема з українською аудіодоріжкою. На телевізорі LG бачить тільки оригінал. Почитавши коментарі, бачу, що я не один такий, мабуть проблема у форматі аудіодоріжки, прохання перекодувати (якщо це можливо)
3d_reliz 
Частий відвідувач


З нами з: 28.09.14
Востаннє: 15.03.16
Повідомлень: 35

2016-01-13 19:33  
можливо телевізору неподобається кодек ДТС.
Ваш часовий пояс: GMT + 2 Години

Нова тема   Відповісти