Завантажити та скачати торренти українською


Чудернацька наука / Weird Science (1985) AVC 2xUkr/Eng | Sub Eng

Нові коментарі

Нова тема   Відповісти
Автор Повідомлення
Anonymous 







2014-09-26 22:21  
Чудернацька наука / Weird Science (1985) AVC 2xUkr/Eng | Sub Eng



Жанр: комедія, фентезі, романтичний
Країна: США



Кінокомпанія: Universal Pictures
Режисер: Джон Хьюз / John Hughes
Актори: Ентоні Майкл Холл / Anthony Michael Hall, Келлі ЛеБрок / Kelly LeBrock, Ілан Мітчелл-Сміт / Ilan Mitchell-Smith, Білл Пекстон / Bill Paxton, Роберт Дауні-молодший / Robert Downey Jr., Сьюзен Снайдер / Suzanne Snyder, Джуді Аронсон / Judie Aronson та інші

Сюжет:
Двоє старшокласників-ботанів намагаються створити ідеальну жінку. Але вона виявилась ще кращою.


Рейтинг MPAA: PG-13 - дітям до 13 років перегляд не бажаний
Вікова категорія: 12+

Тривалість: 01:33:30
Якість: AVC
Відео:
кодек:
розмір кадру: 1024x554
бітрейт: 2514кбіт/с

Аудіо # 1:
мова: українська
переклад: багатоголосий закадровий
кодек: 2.0
бітрейт: 192 кбіт/с

Аудіо # 2:
мова: українська
переклад: двоголосий закадровий
кодек: 2.0
бітрейт: 192 кбіт/с

Аудіо # 3:
мова: англійська
переклад: оригінал
кодек: 5.1
бітрейт: 384 кбіт/с

Субтитри:
мова: англійська
тип: програмні (м'які)
формат: *.srt

Збережено оригінальні розділи, як на Blu-ray.
MediaInfo та log
Код:
General
Unique ID                                : 240925272954326334468527296754847051411 (0xB540850E9D290C85915EC2CAE16FEE93)
Complete name                            : Weird Science (1985) [2xUkr,Eng sub.Eng] AVC [Hurtom].mkv
Format                                   : Matroska
Format version                           : Version 4 / Version 2
File size                                : 2.14 GiB
Duration                                 : 1h 33mn
Overall bit rate                         : 3 283 Kbps
Movie name                               : Чудернацька наука / Weird Science (1985) AVC [Hurtom]
Encoded date                             : UTC 2014-09-26 17:20:41
Writing application                      : mkvmerge v7.2.0 ('On Every Street') 64bit built on Sep 13 2014 15:52:10
Writing library                          : libebml v1.3.0 + libmatroska v1.4.1
DURATION                                 : 01:33:29.952000000
NUMBER_OF_FRAMES                         : 175311
NUMBER_OF_BYTES                          : 134638848
_STATISTICS_WRITING_APP                  : mkvmerge v7.2.0 ('On Every Street') 64bit built on Sep 13 2014 15:52:10
_STATISTICS_WRITING_DATE_UTC             : 2014-09-26 17:20:41
_STATISTICS_TAGS                         : BPS DURATION NUMBER_OF_FRAMES NUMBER_OF_BYTES

Video
ID                                       : 1
Format                                   : AVC
Format/Info                              : Advanced Video Codec
Format profile                           : [email protected]
Format settings, CABAC                   : Yes
Format settings, ReFrames                : 8 frames
Codec ID                                 : V_MPEG4/ISO/AVC
Duration                                 : 1h 33mn
Bit rate                                 : 2 514 Kbps
Width                                    : 1 024 pixels
Height                                   : 554 pixels
Display aspect ratio                     : 1.85:1
Frame rate mode                          : Constant
Frame rate                               : 23.976 fps
Color space                              : YUV
Chroma subsampling                       : 4:2:0
Bit depth                                : 8 bits
Scan type                                : Progressive
Bits/(Pixel*Frame)                       : 0.185
Stream size                              : 1.60 GiB (75%)
Title                                    : Чудернацька наука / Weird Science / Ох уж эта наука! / Чудеса науки (1985) AVC [0ptimus]
Writing library                          : core 133 r2334 a3ac64b
Encoding settings                        : cabac=1 / ref=8 / deblock=1:-3:-3 / analyse=0x3:0x113 / me=umh / subme=10 / psy=1 / psy_rd=1.00:0.20 / mixed_ref=1 / me_range=32 / chroma_me=1 / trellis=2 / 8x8dct=1 / cqm=0 / deadzone=21,11 / fast_pskip=0 / chroma_qp_offset=-3 / threads=3 / lookahead_threads=1 / sliced_threads=0 / nr=0 / decimate=0 / interlaced=0 / bluray_compat=0 / constrained_intra=0 / bframes=10 / b_pyramid=2 / b_adapt=2 / b_bias=0 / direct=3 / weightb=1 / open_gop=0 / weightp=2 / keyint=240 / keyint_min=23 / scenecut=40 / intra_refresh=0 / rc_lookahead=40 / rc=2pass / mbtree=0 / bitrate=2514 / ratetol=1.0 / qcomp=0.60 / qpmin=0 / qpmax=69 / qpstep=4 / cplxblur=20.0 / qblur=0.5 / vbv_maxrate=50000 / vbv_bufsize=50000 / nal_hrd=none / ip_ratio=1.40 / pb_ratio=1.30 / aq=1:1.00
Language                                 : English
Default                                  : Yes
Forced                                   : No
DURATION                                 : 01:33:30.027000000
NUMBER_OF_FRAMES                         : 134506
NUMBER_OF_BYTES                          : 1761859193
_STATISTICS_WRITING_APP                  : mkvmerge v7.2.0 ('On Every Street') 64bit built on Sep 13 2014 15:52:10
_STATISTICS_WRITING_DATE_UTC             : 2014-09-26 17:20:41
_STATISTICS_TAGS                         : BPS DURATION NUMBER_OF_FRAMES NUMBER_OF_BYTES

Audio #1
ID                                       : 2
Format                                   : AC-3
Format/Info                              : Audio Coding 3
Mode extension                           : CM (complete main)
Format settings, Endianness              : Big
Codec ID                                 : A_AC3
Duration                                 : 1h 33mn
Bit rate mode                            : Constant
Bit rate                                 : 192 Kbps
Channel(s)                               : 2 channels
Channel positions                        : Front: L R
Sampling rate                            : 48.0 KHz
Bit depth                                : 16 bits
Compression mode                         : Lossy
Stream size                              : 128 MiB (6%)
Title                                    : MVO [NLO TV] 2.0 192 Kbps [Hurtom-voin747]
Language                                 : Ukrainian
Default                                  : Yes
Forced                                   : No

Audio #2
ID                                       : 3
Format                                   : AC-3
Format/Info                              : Audio Coding 3
Mode extension                           : CM (complete main)
Format settings, Endianness              : Big
Codec ID                                 : A_AC3
Duration                                 : 1h 33mn
Bit rate mode                            : Constant
Bit rate                                 : 192 Kbps
Channel(s)                               : 2 channels
Channel positions                        : Front: L R
Sampling rate                            : 48.0 KHz
Bit depth                                : 16 bits
Compression mode                         : Lossy
Stream size                              : 128 MiB (6%)
Title                                    : DVO [1+1] 2.0 192 Kbps [Hurtom-voin747]
Language                                 : Ukrainian
Default                                  : No
Forced                                   : No

Audio #3
ID                                       : 4
Format                                   : AC-3
Format/Info                              : Audio Coding 3
Mode extension                           : CM (complete main)
Format settings, Endianness              : Big
Codec ID                                 : A_AC3
Duration                                 : 1h 33mn
Bit rate mode                            : Constant
Bit rate                                 : 384 Kbps
Channel(s)                               : 6 channels
Channel positions                        : Front: L C R, Side: L R, LFE
Sampling rate                            : 48.0 KHz
Bit depth                                : 16 bits
Compression mode                         : Lossy
Stream size                              : 257 MiB (12%)
Title                                    : Original 5.1 384 kbps
Language                                 : English
Default                                  : No
Forced                                   : No

Text
ID                                       : 5
Format                                   : UTF-8
Codec ID                                 : S_TEXT/UTF8
Codec ID/Info                            : UTF-8 Plain Text
Title                                    : Eng [SDH]
Language                                 : English
Default                                  : No
Forced                                   : No

Menu
00:00:00.000                             : :Women Everywhere
00:02:25.228                             : :Main Titles
00:03:41.763                             : :To Simulate a Girl
00:10:33.007                             : :Cyber Babe
00:14:20.025                             : :On the Town
00:22:27.804                             : :One Serious Idiot
00:27:16.301                             : :The Morning After
00:30:56.563                             : :At the Mall
00:36:40.823                             : :Gentle Persuasion
00:42:56.156                             : :Party!
00:50:28.358                             : :Scientific Breakthrough
01:00:21.743                             : :Uninvited Guests
01:09:52.980                             : :In the Mood
01:12:38.479                             : :Here Comes Chet
01:18:25.075                             : :Land Speed Record
01:22:12.677                             : :Chet Happens
01:25:09.062                             : :Nick of Time
01:29:55.264                             : :End Titles
01:33:29.770                             : :End


Код:
[info]: frame I:1114 Avg QP:17.67 size: 63154
[info]: frame P:28136 Avg QP:20.72 size: 25597
[info]: frame B:105256 Avg QP:22.83 size: 9228




Джерела та подяки:
ріп відео, оригінальні звук та субтитри - 0ptimus (рутор); українські доріжки - voin747 - зведення, POMEO (1), servus12 (2) - запис з ТБ (всі - Гуртом).


ЗАЛИШАЙТЕСЬ ЯКОМОГА ДОВШЕ НА РОЗДАЧІ!

СКАЧАВ САМ - ДАЙ СКАЧАТИ ІНШИМ


Срібний реліз (на рейтинг впливає 50% завантаженого)
 Трекер:    Зареєстрований   

Завантажити / скачати фільм українською



відео для новачків



 Зареєстрований:   2014-09-26 22:21
 Розмір:   2.14 GB 
 Оцінка фільму:   3.8/10 (Голосів: 17)
   
Інші релізи
SamoGon13 
Частий відвідувач


З нами з: 28.04.10
Востаннє: 05.12.16
Повідомлень: 35

2016-04-06 19:08  
Дякую, згадаю що там у Фільмі було. Бо серіал дуже подобався.
Ваш часовий пояс: GMT + 2 Години

Нова тема   Відповісти