Завантажити та скачати торренти українською


Чудернацька наука / Weird Science (1985) 1080p 2xUkr/Eng | Sub Eng

Нові коментарі

Нова тема   Відповісти
Автор Повідомлення
Anonymous 







2014-09-26 22:12  
Чудернацька наука / Weird Science (1985) 1080p 2xUkr/Eng | Sub Eng



Жанр: комедія, фентезі, романтичний
Країна: США



Кінокомпанія: Universal Pictures
Режисер: Джон Хьюз / John Hughes
Актори: Ентоні Майкл Холл / Anthony Michael Hall, Келлі ЛеБрок / Kelly LeBrock, Ілан Мітчелл-Сміт / Ilan Mitchell-Smith, Білл Пекстон / Bill Paxton, Роберт Дауні-молодший / Robert Downey Jr., Сьюзен Снайдер / Suzanne Snyder, Джуді Аронсон / Judie Aronson та інші

Сюжет:
Двоє старшокласників-ботанів намагаються створити ідеальну жінку. Але вона виявилась ще кращою.


Рейтинг MPAA: PG-13 - дітям до 13 років перегляд не бажаний
Вікова категорія: 12+

Тривалість: 01:33:30
Якість: 1080p
Відео:
кодек:
розмір кадру: 1920х1040
бітрейт: 12.2 Мбіт/с (crf=18.4)

Аудіо # 1:
мова: українська
переклад: багатоголосий закадровий
кодек: 2.0
бітрейт: 192 кбіт/с

Аудіо # 2:
мова: українська
переклад: двоголосий закадровий
кодек: 2.0
бітрейт: 192 кбіт/с

Аудіо # 3:
мова: англійська
переклад: оригінал
кодек: 5.1
бітрейт: 1536 кбіт/с

Субтитри:
мова: англійська
тип: програмні (м'які)
формат: *.srt
MediaInfo та log
Код:
General
Unique ID                                : 207460648565278741953212918623288750198 (0x9C1377B0662BABFC948D8E368194F076)
Complete name                            : Weird Science (1985) [2xUkr,Eng sub.Eng] 1080p [Hurtom].mkv
Format                                   : Matroska
Format version                           : Version 4 / Version 2
File size                                : 9.39 GiB
Duration                                 : 1h 33mn
Overall bit rate                         : 14.4 Mbps
Movie name                               : Чудернацька наука / Weird Science (1985) 1080p [Hurtom]
Encoded date                             : UTC 2014-09-26 18:27:12
Writing application                      : mkvmerge v7.2.0 ('On Every Street') 64bit built on Sep 13 2014 15:52:10
Writing library                          : libebml v1.3.0 + libmatroska v1.4.1
DURATION                                 : 01:33:29.952000000
NUMBER_OF_FRAMES                         : 175311
NUMBER_OF_BYTES                          : 134638848
_STATISTICS_WRITING_APP                  : mkvmerge v7.2.0 ('On Every Street') 64bit built on Sep 13 2014 15:52:10
_STATISTICS_WRITING_DATE_UTC             : 2014-09-26 18:27:12
_STATISTICS_TAGS                         : BPS DURATION NUMBER_OF_FRAMES NUMBER_OF_BYTES

Video
ID                                       : 1
Format                                   : AVC
Format/Info                              : Advanced Video Codec
Format profile                           : [email protected]
Format settings, CABAC                   : Yes
Format settings, ReFrames                : 4 frames
Codec ID                                 : V_MPEG4/ISO/AVC
Duration                                 : 1h 33mn
Bit rate                                 : 12.2 Mbps
Width                                    : 1 920 pixels
Height                                   : 1 040 pixels
Display aspect ratio                     : 1.85:1
Frame rate mode                          : Constant
Frame rate                               : 23.976 fps
Color space                              : YUV
Chroma subsampling                       : 4:2:0
Bit depth                                : 8 bits
Scan type                                : Progressive
Bits/(Pixel*Frame)                       : 0.255
Stream size                              : 7.97 GiB (85%)
Title                                    : Чудернацька наука / Weird Science / Ох уж эта наука! / Чудеса науки (1985) 1080p [msltel/STarankov]
Writing library                          : core 138 r2358 9e941d1
Encoding settings                        : cabac=1 / ref=4 / deblock=1:-3:-3 / analyse=0x3:0x113 / me=umh / subme=10 / psy=1 / psy_rd=1.00:0.15 / mixed_ref=1 / me_range=24 / chroma_me=1 / trellis=2 / 8x8dct=1 / cqm=0 / deadzone=21,11 / fast_pskip=0 / chroma_qp_offset=-3 / threads=6 / lookahead_threads=1 / sliced_threads=0 / nr=0 / decimate=1 / interlaced=0 / bluray_compat=0 / constrained_intra=0 / bframes=8 / b_pyramid=2 / b_adapt=2 / b_bias=0 / direct=1 / weightb=1 / open_gop=0 / weightp=2 / keyint=230 / keyint_min=23 / scenecut=40 / intra_refresh=0 / rc_lookahead=40 / rc=crf / mbtree=0 / crf=18.4 / qcomp=0.60 / qpmin=0 / qpmax=69 / qpstep=4 / vbv_maxrate=50000 / vbv_bufsize=62500 / crf_max=0.0 / nal_hrd=none / ip_ratio=1.40 / pb_ratio=1.30 / aq=1:1.00
Language                                 : English
Default                                  : Yes
Forced                                   : No
DURATION                                 : 01:33:30.021000000
NUMBER_OF_FRAMES                         : 134506
NUMBER_OF_BYTES                          : 8755865199
_STATISTICS_WRITING_APP                  : mkvmerge v7.2.0 ('On Every Street') 64bit built on Sep 13 2014 15:52:10
_STATISTICS_WRITING_DATE_UTC             : 2014-09-26 18:27:12
_STATISTICS_TAGS                         : BPS DURATION NUMBER_OF_FRAMES NUMBER_OF_BYTES

Audio #1
ID                                       : 2
Format                                   : AC-3
Format/Info                              : Audio Coding 3
Mode extension                           : CM (complete main)
Format settings, Endianness              : Big
Codec ID                                 : A_AC3
Duration                                 : 1h 33mn
Bit rate mode                            : Constant
Bit rate                                 : 192 Kbps
Channel(s)                               : 2 channels
Channel positions                        : Front: L R
Sampling rate                            : 48.0 KHz
Bit depth                                : 16 bits
Compression mode                         : Lossy
Stream size                              : 128 MiB (1%)
Title                                    : MVO [NLO TV] 2.0 192 Kbps [Hurtom-voin747]
Language                                 : Ukrainian
Default                                  : Yes
Forced                                   : No

Audio #2
ID                                       : 3
Format                                   : AC-3
Format/Info                              : Audio Coding 3
Mode extension                           : CM (complete main)
Format settings, Endianness              : Big
Codec ID                                 : A_AC3
Duration                                 : 1h 33mn
Bit rate mode                            : Constant
Bit rate                                 : 192 Kbps
Channel(s)                               : 2 channels
Channel positions                        : Front: L R
Sampling rate                            : 48.0 KHz
Bit depth                                : 16 bits
Compression mode                         : Lossy
Stream size                              : 128 MiB (1%)
Title                                    : DVO [1+1] 2.0 192 Kbps [Hurtom-voin747]
Language                                 : Ukrainian
Default                                  : No
Forced                                   : No

Audio #3
ID                                       : 4
Format                                   :
Format/Info                              : Digital Theater Systems
Mode                                     : 16
Format settings, Endianness              : Big
Codec ID                                 : A_DTS
Duration                                 : 1h 33mn
Bit rate mode                            : Constant
Bit rate                                 : 1 509 Kbps
Channel(s)                               : 6 channels
Channel positions                        : Front: L C R, Side: L R, LFE
Sampling rate                            : 48.0 KHz
Bit depth                                : 24 bits
Compression mode                         : Lossy
Stream size                              : 1 009 MiB (10%)
Title                                    : Original 5.1 1536 Kbps
Language                                 : English
Default                                  : No
Forced                                   : No

Text
ID                                       : 5
Format                                   : UTF-8
Codec ID                                 : S_TEXT/UTF8
Codec ID/Info                            : UTF-8 Plain Text
Title                                    : Eng SDH
Language                                 : English
Default                                  : No
Forced                                   : No


Код:
avs [info]: 1920x1040p 1:1 @ 24000/1001 fps (cfr)
[info]: using SAR=1/1
[info]: using cpu capabilities: MMX2 SSE2Fast SSSE3 SSE4.2
[info]: profile High, level 4.1
[info]: frame I:1049 Avg QP:16.48 size:159244
[info]: frame P:26267 Avg QP:17.49 size:104129
[info]: frame B:107190 Avg QP:19.94 size: 54610
[info]: consecutive B-frames: 1.5% 1.2% 2.7% 17.7% 11.1% 56.5% 4.8% 3.8% 0.7%
[info]: mb I I16..4: 5.7% 85.9% 8.4%
[info]: mb P I16..4: 2.3% 43.0% 2.0% P16..4: 22.7% 20.0% 7.2% 0.0% 0.0% skip: 2.7%
[info]: mb B I16..4: 0.3% 6.1% 0.2% B16..8: 35.9% 16.2% 3.5% direct:21.8% skip:16.1% L0:40.8% L1:36.9% BI:22.3%
[info]: 8x8 transform intra:91.4% inter:50.6%
[info]: coded y,uvDC,uvAC intra: 92.9% 90.0% 59.0% inter: 52.6% 41.2% 2.8%
[info]: i16 v,h,dc,p: 41% 7% 5% 47%
[info]: i8 v,h,dc,ddl,ddr,vr,hd,vl,hu: 14% 9% 13% 8% 10% 11% 10% 12% 14%
[info]: i4 v,h,dc,ddl,ddr,vr,hd,vl,hu: 12% 8% 4% 9% 14% 15% 14% 11% 13%
[info]: i8c dc,h,v,p: 43% 22% 21% 14%
[info]: Weighted P-Frames: Y:6.6% UV:3.7%
[info]: ref P L0: 47.0% 8.3% 27.4% 16.2% 1.1% 0.0%
[info]: ref B L0: 83.9% 12.4% 3.7%
[info]: ref B L1: 91.8% 8.2%
[info]: kb/s:12486.04
encoded 134506 frames, 2.13 fps, 12486.04 kb/s
Final statistics
Constant Quality Mode: Quality 18 computed...
Video Bitrate Obtained (approximate): 12487 kbit/s




Джерела та подяки:
ріп відео, оригінальні звук та субтитри - msltel (STarankov) (рутор); українські доріжки - voin747 - зведення, POMEO (1), servus12 (2) - запис з ТБ (всі - Гуртом).


ЗАЛИШАЙТЕСЬ ЯКОМОГА ДОВШЕ НА РОЗДАЧІ!

СКАЧАВ САМ - ДАЙ СКАЧАТИ ІНШИМ


Срібний реліз (на рейтинг впливає 50% завантаженого)
 Трекер:    Зареєстрований   

Завантажити / скачати фільм українською



відео для новачків



 Зареєстрований:   2014-09-26 22:12
 Розмір:   9.39 GB 
 Оцінка фільму:   3.2/10 (Голосів: 14)
   
Інші релізи
leicheman 
Відео Гуртом - підтримка та поширення
Відео Гуртом - підтримка та поширення


З нами з: 03.07.14
Востаннє: 05.12.16
Повідомлень: 316

2014-09-27 07:24  
такий собі,середнячок. на вечір , щоб не паритися та розслабитися піде.
Ваш часовий пояс: GMT + 2 Години

Нова тема   Відповісти