Завантажити та скачати торренти українською


Чудернацька наука / Weird Science (1985) 720p 2xUkr/Eng | Sub Eng

Нові коментарі

Нова тема   Відповісти
Автор Повідомлення
Anonymous 







2014-09-26 22:02  
Чудернацька наука / Weird Science (1985) 720p 2xUkr/Eng | Sub Eng



Жанр: комедія, фентезі, романтичний
Країна: США



Кінокомпанія: Universal Pictures
Режисер: Джон Хьюз / John Hughes
Актори: Ентоні Майкл Холл / Anthony Michael Hall, Келлі ЛеБрок / Kelly LeBrock, Ілан Мітчелл-Сміт / Ilan Mitchell-Smith, Білл Пекстон / Bill Paxton, Роберт Дауні-молодший / Robert Downey Jr., Сьюзен Снайдер / Suzanne Snyder, Джуді Аронсон / Judie Aronson та інші

Сюжет:
Двоє старшокласників-ботанів намагаються створити ідеальну жінку. Але вона виявилась ще кращою.


Рейтинг MPAA: PG-13 - дітям до 13 років перегляд не бажаний
Вікова категорія: 12+

Тривалість: 01:33:30
Якість: 720p
Відео:
кодек:
розмір кадру: 1280х694
бітрейт: 5861 кбіт/с (crf=18)

Аудіо # 1:
мова: українська
переклад: багатоголосий закадровий
кодек: 2.0
бітрейт: 192 кбіт/с

Аудіо # 2:
мова: українська
переклад: двоголосий закадровий
кодек: 2.0
бітрейт: 192 кбіт/с

Аудіо # 3:
мова: англійська
переклад: оригінал
кодек: 5.1
бітрейт: 1536 кбіт/с

Субтитри:
мова: англійська
тип: програмні (м'які)
формат: *.srt
MediaInfo та log
Код:
General
Unique ID                                : 184847460535360732339337982806657414741 (0x8B105370BB4F4CAD89ADCB35E5ED3655)
Complete name                            : Weird Science (1985) [2xUkr,Eng sub.Eng] 720p [Hurtom].mkv
Format                                   : Matroska
Format version                           : Version 4 / Version 2
File size                                : 5.17 GiB
Duration                                 : 1h 33mn
Overall bit rate                         : 7 912 Kbps
Movie name                               : Чудернацька наука / Weird Science (1985) 720p [Hurtom]
Encoded date                             : UTC 2014-09-26 18:14:27
Writing application                      : mkvmerge v7.2.0 ('On Every Street') 64bit built on Sep 13 2014 15:52:10
Writing library                          : libebml v1.3.0 + libmatroska v1.4.1
DURATION                                 : 01:33:29.952000000
NUMBER_OF_FRAMES                         : 175311
NUMBER_OF_BYTES                          : 134638848
_STATISTICS_WRITING_APP                  : mkvmerge v7.2.0 ('On Every Street') 64bit built on Sep 13 2014 15:52:10
_STATISTICS_WRITING_DATE_UTC             : 2014-09-26 18:14:27
_STATISTICS_TAGS                         : BPS DURATION NUMBER_OF_FRAMES NUMBER_OF_BYTES

Video
ID                                       : 1
Format                                   : AVC
Format/Info                              : Advanced Video Codec
Format profile                           : [email protected]
Format settings, CABAC                   : Yes
Format settings, ReFrames                : 9 frames
Codec ID                                 : V_MPEG4/ISO/AVC
Duration                                 : 1h 33mn
Bit rate                                 : 5 861 Kbps
Width                                    : 1 280 pixels
Height                                   : 694 pixels
Display aspect ratio                     : 1.85:1
Frame rate mode                          : Constant
Frame rate                               : 23.976 fps
Color space                              : YUV
Chroma subsampling                       : 4:2:0
Bit depth                                : 8 bits
Scan type                                : Progressive
Bits/(Pixel*Frame)                       : 0.275
Stream size                              : 3.83 GiB (74%)
Title                                    : Чудернацька наука / Weird Science / Ох уж эта наука! / Чудеса науки (1985) 720p [msltel/STarankov]
Writing library                          : core 138 r2358 9e941d1
Encoding settings                        : cabac=1 / ref=9 / deblock=1:-2:-2 / analyse=0x3:0x113 / me=umh / subme=10 / psy=1 / psy_rd=1.00:0.15 / mixed_ref=1 / me_range=24 / chroma_me=1 / trellis=2 / 8x8dct=1 / cqm=0 / deadzone=21,11 / fast_pskip=0 / chroma_qp_offset=-3 / threads=6 / lookahead_threads=1 / sliced_threads=0 / nr=0 / decimate=1 / interlaced=0 / bluray_compat=0 / constrained_intra=0 / bframes=8 / b_pyramid=2 / b_adapt=2 / b_bias=0 / direct=1 / weightb=1 / open_gop=0 / weightp=2 / keyint=230 / keyint_min=23 / scenecut=40 / intra_refresh=0 / rc_lookahead=40 / rc=crf / mbtree=0 / crf=18.0 / qcomp=0.60 / qpmin=0 / qpmax=69 / qpstep=4 / vbv_maxrate=50000 / vbv_bufsize=62500 / crf_max=0.0 / nal_hrd=none / ip_ratio=1.40 / pb_ratio=1.30 / aq=1:1.00
Language                                 : English
Default                                  : Yes
Forced                                   : No
DURATION                                 : 01:33:30.021000000
NUMBER_OF_FRAMES                         : 134506
NUMBER_OF_BYTES                          : 4218556173
_STATISTICS_WRITING_APP                  : mkvmerge v7.2.0 ('On Every Street') 64bit built on Sep 13 2014 15:52:10
_STATISTICS_WRITING_DATE_UTC             : 2014-09-26 18:14:27
_STATISTICS_TAGS                         : BPS DURATION NUMBER_OF_FRAMES NUMBER_OF_BYTES

Audio #1
ID                                       : 2
Format                                   : AC-3
Format/Info                              : Audio Coding 3
Mode extension                           : CM (complete main)
Format settings, Endianness              : Big
Codec ID                                 : A_AC3
Duration                                 : 1h 33mn
Bit rate mode                            : Constant
Bit rate                                 : 192 Kbps
Channel(s)                               : 2 channels
Channel positions                        : Front: L R
Sampling rate                            : 48.0 KHz
Bit depth                                : 16 bits
Compression mode                         : Lossy
Stream size                              : 128 MiB (2%)
Title                                    : MVO [NLO TV] 2.0 192 Kbps [Hurtom-voin747]
Language                                 : Ukrainian
Default                                  : Yes
Forced                                   : No

Audio #2
ID                                       : 3
Format                                   : AC-3
Format/Info                              : Audio Coding 3
Mode extension                           : CM (complete main)
Format settings, Endianness              : Big
Codec ID                                 : A_AC3
Duration                                 : 1h 33mn
Bit rate mode                            : Constant
Bit rate                                 : 192 Kbps
Channel(s)                               : 2 channels
Channel positions                        : Front: L R
Sampling rate                            : 48.0 KHz
Bit depth                                : 16 bits
Compression mode                         : Lossy
Stream size                              : 128 MiB (2%)
Title                                    : DVO [1+1] 2.0 192 Kbps [Hurtom-voin747]
Language                                 : Ukrainian
Default                                  : No
Forced                                   : No

Audio #3
ID                                       : 4
Format                                   :
Format/Info                              : Digital Theater Systems
Mode                                     : 16
Format settings, Endianness              : Big
Codec ID                                 : A_DTS
Duration                                 : 1h 33mn
Bit rate mode                            : Constant
Bit rate                                 : 1 509 Kbps
Channel(s)                               : 6 channels
Channel positions                        : Front: L C R, Side: L R, LFE
Sampling rate                            : 48.0 KHz
Bit depth                                : 24 bits
Compression mode                         : Lossy
Stream size                              : 1 009 MiB (19%)
Title                                    : Original 5.1 1536 Kbps
Language                                 : English
Default                                  : No
Forced                                   : No

Text
ID                                       : 5
Format                                   : UTF-8
Codec ID                                 : S_TEXT/UTF8
Codec ID/Info                            : UTF-8 Plain Text
Title                                    : Eng [SDH]
Language                                 : English
Default                                  : No
Forced                                   : No


Код:
avs [info]: 1280x694p 1:1 @ 24000/1001 fps (cfr)
[info]: using SAR=1/1
[info]: using cpu capabilities: MMX2 SSE2Fast SSSE3 SSE4.2
[info]: profile High, level 4.1
[info]: frame I:1151 Avg QP:16.80 size: 93751
[info]: frame P:26523 Avg QP:17.84 size: 52887
[info]: frame B:106832 Avg QP:20.49 size: 25348
[info]: consecutive B-frames: 1.5% 1.0% 2.9% 20.5% 13.1% 51.4% 4.5% 4.0% 1.0%
[info]: mb I I16..4: 3.8% 84.4% 11.8%
[info]: mb P I16..4: 1.2% 27.0% 1.9% P16..4: 27.0% 26.6% 13.7% 0.0% 0.0% skip: 2.6%
[info]: mb B I16..4: 0.1% 3.1% 0.2% B16..8: 37.0% 18.4% 4.8% direct:15.8% skip:20.5% L0:44.7% L1:37.4% BI:17.8%
[info]: 8x8 transform intra:90.0% inter:55.4%
[info]: coded y,uvDC,uvAC intra: 93.9% 90.5% 68.0% inter: 48.4% 30.8% 3.0%
[info]: i16 v,h,dc,p: 70% 7% 5% 18%
[info]: i8 v,h,dc,ddl,ddr,vr,hd,vl,hu: 13% 8% 10% 8% 12% 12% 11% 12% 14%
[info]: i4 v,h,dc,ddl,ddr,vr,hd,vl,hu: 16% 7% 3% 9% 14% 15% 13% 12% 12%
[info]: i8c dc,h,v,p: 45% 21% 19% 15%
[info]: Weighted P-Frames: Y:8.9% UV:4.4%
[info]: ref P L0: 37.2% 8.5% 19.8% 9.0% 7.9% 5.8% 5.3% 3.1% 3.1% 0.3% 0.0%
[info]: ref B L0: 69.4% 12.7% 6.6% 3.9% 3.0% 2.5% 1.4% 0.5%
[info]: ref B L1: 93.2% 6.8%
[info]: kb/s:6015.74
encoded 134506 frames, 3.63 fps, 6015.74 kb/s
Final statistics
Constant Quality Mode: Quality 18 computed...
Video Bitrate Obtained (approximate): 6017 kbit/s




Джерела та подяки:
ріп відео, оригінальні звук та субтитри - msltel (STarankov) (рутор); українські доріжки - voin747 - зведення, POMEO (1), servus12 (2) - запис з ТБ (всі - Гуртом).


ЗАЛИШАЙТЕСЬ ЯКОМОГА ДОВШЕ НА РОЗДАЧІ!

СКАЧАВ САМ - ДАЙ СКАЧАТИ ІНШИМ


Срібний реліз (на рейтинг впливає 50% завантаженого)
 Трекер:    Зареєстрований   

Завантажити / скачати фільм українською



відео для новачків



 Зареєстрований:   2014-09-26 22:03
 Розмір:   5.17 GB 
 Оцінка фільму:   3.1/10 (Голосів: 13)
   
Інші релізи
Ваш часовий пояс: GMT + 2 Години

Нова тема   Відповісти