Завантажити та скачати торренти українською


Izzet - Дискографія (3 альбома) (2004-2008) [FLAC] | Reggae / Ethno

Нові коментарі

Нова тема   Відповісти
Автор Повідомлення
gosha.samovar 
VIP


З нами з: 08.09.10
Востаннє: 06.12.16
Повідомлень: 400

2014-09-25 16:47  
Izzet - Дискографія (3 альбома) (2004-2008) [FLAC] | Reggae / Ethno



Стиль: Reggae, Folk (кримськотатарський фольклор)
Країна, місто: Україна, Київ
Сайти: Офіційний сайт
my security (2004)



01. Let`s Shoot (Стреляй)
02. My Security (Моя защита)
03. It`s Raining (Дождит)
04. Seabird (Морская птица)
05. My Friend (Мой друг)
06. Isn`t Bad (Неплохо)
07. Alone Cowboy (Одинокий ковбой)
08. Go Pass (Проходи мимо)
09. Реггей Вагон
10. Арсланларымызгъа (Нашим львам)
11. Ёсман (Моя прекрасная)

Видавець: Atlantic (461 ATL CD-A)
Виконавці:
    Іззет Аблязов (вірші, музика, лідер-вокал, бек-вокал, гітара, бас-гітара, аранжування народної пісні)
    Сергій Хмельов (перкусія, стіл-драм, бек-вокал)
    Ігор Закус (бас-гітара) 06, 09, 10
    Кирило Мачинський (бас-гітара) 02, 03
    у альбомі використано голоси живих птахів
EAC log
Exact Audio Copy V1.0 beta 3 from 29. August 2011

Отчёт EAC об извлечении, выполненном 8. сентября 2014, 16:40

Izzet / my security

Дисковод: HL-DT-STDVD-RAM GSA-H58N Adapter: 0 ID: 0

Режим чтения : Достоверность
Использование точного потока : Да
Отключение кэша аудио : Да
Использование указателей C2 : Нет

Коррекция смещения при чтении : 102
Способность читать области Lead-in и Lead-out : Нет
Заполнение пропущенных сэмплов тишиной : Да
Удаление блоков с тишиной в начале и конце : Нет
При вычислениях CRC использовались нулевые сэмплы : Да
Интерфейс : Встроенный Win32-интерфейс для Win NT/2000

Выходной формат : Пользовательский кодировщик
Выбранный битрейт : 1024 kBit/s
Качество : Высокий
Добавление ID3-тега : Нет
Утилита сжатия : D:\soft_2\EAC\Exact Audio Copy\Flac\flac.exe
Дополнительные параметры : -V -8 -T "Date=%year%" -T "Genre=%genre%" %source%

TOC извлечённого CD

Трек | Старт | Длительность | Начальный сектор | Конечный сектор
---------------------------------------------------------------------
1 | 0:00.00 | 2:32.70 | 0 | 11469
2 | 2:32.70 | 4:08.69 | 11470 | 30138
3 | 6:41.64 | 3:23.52 | 30139 | 45415
4 | 10:05.41 | 3:35.22 | 45416 | 61562
5 | 13:40.63 | 3:45.45 | 61563 | 78482
6 | 17:26.33 | 3:30.31 | 78483 | 94263
7 | 20:56.64 | 3:29.65 | 94264 | 110003
8 | 24:26.54 | 2:33.36 | 110004 | 121514
9 | 27:00.15 | 3:04.68 | 121515 | 135382
10 | 30:05.08 | 5:49.46 | 135383 | 161603
11 | 35:54.54 | 2:37.02 | 161604 | 173380

Характеристики диапазона извлечения и сообщения об ошибках

Выбранный диапазон

Имя файла E:\Izzet\2004 - my security\Izzet - my security.wav

Пиковый уровень 99.9 %
Скорость извлечения 2.3 X
Качество диапазона 99.9 %
CRC теста 81024C2E
CRC копии 81024C2E
Копирование... OK

Ошибок не произошло

AccurateRip: сводка

Трек 1 отсутствует в базе данных
Трек 2 отсутствует в базе данных
Трек 3 отсутствует в базе данных
Трек 4 отсутствует в базе данных
Трек 5 отсутствует в базе данных
Трек 6 отсутствует в базе данных
Трек 7 отсутствует в базе данных
Трек 8 отсутствует в базе данных
Трек 9 : извлечено точно (доверие 1) [2953DFF9] (AR v1)
Трек 10 отсутствует в базе данных
Трек 11 отсутствует в базе данных

1 трек(и) скопированы точно
10 трек(и) не содержатся в базе AccurateRip

Некоторые треки не прошли проверку на точность

Конец отчёта

==== Контрольная сумма отчёта EF7D3C77587B29B65B4BAE6F612B404CD5F2AA03D4FED163D9888FA9EC5ABC77 ====
Спектр
Тривалість: 00:38:32
Бітрейт: 989 кб/с
Мова: англійська (01-08), кримськотатарська (09-11)
Reggalia (2005)



01. Къой "тым-тым" (Ставь тым-тым)
02. Эля козьлюм (Моя голубоглазая)
03. Папийим (Уточка)
04. Ич къоркъмады юрегим (Не было в сердце страха)
05. Айгъа (На луну)
06. Фесим кетти дерьягъа (Уплыла моя феска по реке)
07. Багъчаларда кестане (В садах каштаны)
08. Бу дуньяда бир яр севдим (В этом мире я полюбила)
09. Зульмет (Темнота)
10. Ич къоркъмады юрегим (acoustic)
11. Ёсман (remix) (Моя прекрасная)
12. Регги-вагон (remix)
13. Арсланларымызгъа (Нашим львам remake)

Видавець: Atlantic (717 ATL CD-A)
Виконавці:
    Іззет Аблязов - гітара, вокал, музика (05, 10, 12, 13), вірші (01, 05, 10, 12, 13), обробки народних пісень
    Сергій Хмельов - ударні (02), перкусія (02, 03, 05, 06, 07, 08, 11, 12, 13)
    Олег Мамушев - ударні (1, 3, 4, 5, 6), перкусія (1, 3, 4, 9, 10)
    Рассім Ромазанов - клавішні
    Анвар Азізов - бас (01, 03, 04, 05, 07, 08)
    Ганна Война - бас (02, 06)
EAC log
Exact Audio Copy V1.0 beta 3 from 29. August 2011

Отчёт EAC об извлечении, выполненном 8. сентября 2014, 15:07

Izzet / Reggalia

Дисковод: HL-DT-STDVD-RAM GSA-H58N Adapter: 0 ID: 0

Режим чтения : Достоверность
Использование точного потока : Да
Отключение кэша аудио : Да
Использование указателей C2 : Нет

Коррекция смещения при чтении : 102
Способность читать области Lead-in и Lead-out : Нет
Заполнение пропущенных сэмплов тишиной : Да
Удаление блоков с тишиной в начале и конце : Нет
При вычислениях CRC использовались нулевые сэмплы : Да
Интерфейс : Встроенный Win32-интерфейс для Win NT/2000

Выходной формат : Пользовательский кодировщик
Выбранный битрейт : 1024 kBit/s
Качество : Высокий
Добавление ID3-тега : Нет
Утилита сжатия : D:\soft_2\EAC\Exact Audio Copy\Flac\flac.exe
Дополнительные параметры : -V -8 -T "Date=%year%" -T "Genre=%genre%" %source%

TOC извлечённого CD

Трек | Старт | Длительность | Начальный сектор | Конечный сектор
---------------------------------------------------------------------
1 | 0:00.00 | 4:00.13 | 0 | 18012
2 | 4:00.13 | 5:03.10 | 18013 | 40747
3 | 9:03.23 | 5:50.69 | 40748 | 67066
4 | 14:54.17 | 5:16.10 | 67067 | 90776
5 | 20:10.27 | 4:39.28 | 90777 | 111729
6 | 24:49.55 | 3:36.70 | 111730 | 127999
7 | 28:26.50 | 3:46.53 | 128000 | 145002
8 | 32:13.28 | 3:42.08 | 145003 | 161660
9 | 35:55.36 | 2:40.29 | 161661 | 173689
10 | 38:35.65 | 5:15.25 | 173690 | 197339
11 | 43:51.15 | 3:01.12 | 197340 | 210926
12 | 46:52.27 | 3:27.07 | 210927 | 226458
13 | 50:19.34 | 5:50.01 | 226459 | 252709

Характеристики диапазона извлечения и сообщения об ошибках

Выбранный диапазон

Имя файла E:\Izzet\2005 - Reggalia\Izzet - Reggalia.wav

Пиковый уровень 97.7 %
Скорость извлечения 2.3 X
Качество диапазона 99.9 %
CRC теста 17CC8F12
CRC копии 17CC8F12
Копирование... OK

Ошибок не произошло

AccurateRip: сводка

Трек 1 : извлечено точно (доверие 2) [C4EB828F] (AR v1)
Трек 2 : извлечено точно (доверие 1) [B7FCEC2B] (AR v1)
Трек 3 : извлечено точно (доверие 1) [2A453065] (AR v1)
Трек 4 : извлечено точно (доверие 1) [B415A722] (AR v1)
Трек 5 : извлечено точно (доверие 1) [0EC5AA70] (AR v1)
Трек 6 отсутствует в базе данных
Трек 7 отсутствует в базе данных
Трек 8 : извлечено точно (доверие 2) [F136DD4B] (AR v1)
Трек 9 отсутствует в базе данных
Трек 10 отсутствует в базе данных
Трек 11 отсутствует в базе данных
Трек 12 : извлечено точно (доверие 1) [16810AD4] (AR v1)
Трек 13 отсутствует в базе данных

7 трек(и) скопированы точно
6 трек(и) не содержатся в базе AccurateRip

Некоторые треки не прошли проверку на точность

Конец отчёта

==== Контрольная сумма отчёта A6910F96C594F26469B03B0C01A4F47A7907704A871861D3B878ECCEE2AB9768 ====
Спектр
Тривалість: 00:56:09
Бітрейт: 976 кб/с
Мова: кримськотатарська
Fraon (2008)



01. i won't die ольмен мен не умру
02. abhazian rington
03. crow, don't fly учма да къаргъам не летай ворона
04. white camels акъ девелер белые верблюды
05. абхазский рингтон 2
06. high roses юксек гуллер высокие розы
07. there was no fear in my heart ич къоргъмады юрегим не было в сердце страха
08. to the moonайгъа на луну
09. abhazian dub
10. for lord к богу
11. lomonosova str. №11
12. я їду з тобою

Видавець: Atlantic (1129 ATL CD-A)
Виконавці:
    І. Аблязов - вокал, гітара (03, 04), сааз (02, 05, 06, 07, 08), бас-гітара (01), перкусія (02, 05, 06, 07, 08)
    О. Мамушев - ударні (03, 04)
    А. Азізов - бас (03, 04)
    Р. Рамазанов - клавішні (03, 04)
    І. Копеков - ритм-сааз (02, 05, 06, 07, 08)
    Ю. Галінін - електроконтрабас (02, 05, 06, 07, 08)
    С. Хмельов - ударні (01)
    І. Копеков - соло-гітара
EAC log
Exact Audio Copy V1.0 beta 3 from 29. August 2011

Отчёт EAC об извлечении, выполненном 8. сентября 2014, 17:51

Izzet / Fraon

Дисковод: HL-DT-STDVD-RAM GSA-H58N Adapter: 0 ID: 0

Режим чтения : Достоверность
Использование точного потока : Да
Отключение кэша аудио : Да
Использование указателей C2 : Нет

Коррекция смещения при чтении : 102
Способность читать области Lead-in и Lead-out : Нет
Заполнение пропущенных сэмплов тишиной : Да
Удаление блоков с тишиной в начале и конце : Нет
При вычислениях CRC использовались нулевые сэмплы : Да
Интерфейс : Встроенный Win32-интерфейс для Win NT/2000

Выходной формат : Пользовательский кодировщик
Выбранный битрейт : 1024 kBit/s
Качество : Высокий
Добавление ID3-тега : Нет
Утилита сжатия : D:\soft_2\EAC\Exact Audio Copy\Flac\flac.exe
Дополнительные параметры : -V -8 -T "Date=%year%" -T "Genre=%genre%" %source%

TOC извлечённого CD

Трек | Старт | Длительность | Начальный сектор | Конечный сектор
---------------------------------------------------------------------
1 | 0:00.00 | 3:19.30 | 0 | 14954
2 | 3:19.30 | 2:51.41 | 14955 | 27820
3 | 6:10.71 | 4:05.13 | 27821 | 46208
4 | 10:16.09 | 3:34.19 | 46209 | 62277
5 | 13:50.28 | 3:47.45 | 62278 | 79347
6 | 17:37.73 | 4:14.19 | 79348 | 98416
7 | 21:52.17 | 4:05.25 | 98417 | 116816
8 | 25:57.42 | 6:43.08 | 116817 | 147049
9 | 32:40.50 | 2:44.46 | 147050 | 159395
10 | 35:25.21 | 4:18.03 | 159396 | 178748
11 | 39:43.24 | 3:00.27 | 178749 | 192275
12 | 42:43.51 | 3:24.64 | 192276 | 207639

Характеристики диапазона извлечения и сообщения об ошибках

Выбранный диапазон

Имя файла E:\Izzet\2008 - Fraon\Izzet - Fraon.wav

Пиковый уровень 97.7 %
Скорость извлечения 2.4 X
Качество диапазона 99.9 %
CRC теста AB423DE5
CRC копии AB423DE5
Копирование... OK

Ошибок не произошло

AccurateRip: сводка

Трек 1 отсутствует в базе данных
Трек 2 отсутствует в базе данных
Трек 3 : извлечено точно (доверие 1) [FE1A267D] (AR v1)
Трек 4 отсутствует в базе данных
Трек 5 отсутствует в базе данных
Трек 6 : извлечено точно (доверие 1) [57918877] (AR v1)
Трек 7 : извлечено точно (доверие 1) [F7FCF722] (AR v1)
Трек 8 отсутствует в базе данных
Трек 9 отсутствует в базе данных
Трек 10 отсутствует в базе данных
Трек 11 отсутствует в базе данных
Трек 12 отсутствует в базе данных

3 трек(и) скопированы точно
9 трек(и) не содержатся в базе AccurateRip

Некоторые треки не прошли проверку на точность

Конец отчёта

==== Контрольная сумма отчёта 82CF994DD1ABF36FA19DB2F31F85972D0FE579C42523601F7576E73293F4BF53 ====
Спектр
Тривалість: 00:46:49
Бітрейт: 978 кб/с
Мова: кримськотатарська (01-08), англійська (09-11), українська (12)
Тривалість: 02:44:38
Мова: кримськотатарська, англійська, українська
Аудіо-кодек: FLAC
Бітрейт: 976-989 кб/с
Джерело: Власні диски
Роздача містить скани у якості 300 dpi
Додаткова інформація
Якщо Ви справді бажаєте підтримати українське - після прослуховування, якщо музика вам сподобалась, придбайте ліцензійний диск. Підтримаймо вітчизняних виконавців!


Золотий реліз (завантажене не впливає на рейтинг)
 Трекер:    Зареєстрований   

Завантажити / скачати українську музику



відео для новачків



 Зареєстрований:   2014-09-25 16:47
 Розмір:   1.04 GB 
 Оцінка музики:   7.3/10 (Голосів: 6)
   
химерка 
Поважний учасник


З нами з: 09.10.12
Востаннє: 24.09.16
Повідомлень: 195

2014-09-25 21:59  
дуже дякую, я вже думала, ви забули, а тут така втіха! =)
якщо ви не проти, зроблю з цього mp3 для своєї роздачі.

gosha.samovar 
VIP


З нами з: 08.09.10
Востаннє: 06.12.16
Повідомлень: 400

2014-09-25 22:46  
Ну я ж обіцяв).
Звичайно, не проти.

Ваш часовий пояс: GMT + 2 Години

Нова тема   Відповісти