Завантажити та скачати торренти українською


Велика справа / The Big Hit (1998) 720p Ukr/Eng | Sub Multi

Нові коментарі

Нова тема   Відповісти
Автор Повідомлення
Anonymous 







2014-09-21 22:05  
Велика справа / The Big Hit (1998) 720p Ukr/Eng | Sub Multi



Альтернативний постер


Жанр: бойовик, трилер, комедія, кримінальний
Країна: США



Кінокомпанія: Sony Pictures, TriStar Pictures, Amen Ra Films, Zide-Perry Productions
Режисер: Кірк Вонг / Kirk Wong
Актори: Марк Волберґ / Mark Wahlberg, Лу Даймонд Філліпс / Lou Diamond Phillips, Крістіна Епплгейт / Christina Applegate, Ейвері Брукс / Avery Brooks, Букем Вудбайн / Bokeem Woodbine, Антоніо Сабато мол. / Antonio Sabato Jr., Чайна Чоу / China Chow, Лейні Казан / Lainie Kazan, Елліотт Гулд / Elliott Gould, Саб Сімоно / Sab Shimono та інші

Сюжет:
Професійний вбивця Мел і його побратими по зброї працюють без вихідних. Чергова справа, на перший погляд, здається легкою та невимушеною. Вони викрадають доньку багатого промисловця, не підозрюючи, що дівчина - хрещениця їх могутнього боса. До складності ситуації додається ще один штрих: Мел закохується у свою жертву...


Рейтинг MPAA: R - особам до 17 років обов'язкова присутність батьків або дорослого опікуна
Вікова категорія: 16+

Тривалість: 01:31:23
Якість: 720p [CRiSC]
Відео:
кодек:
розмір кадру: 1280 х 694
бітрейт: 7104 кбіт/с (crf=17.2)

Аудіо # 1:
мова: українська (ідентична озвучка було по Кіно, 2+2, ТРК "Україна")
переклад: двоголосий закадровий
кодек: 2.0
бітрейт: 192 кбіт/с
Інформація про озвучення
Переклад: Валентина Бойвана
Літературний редактор: Романна Мельниченко
Звукорежисер: Сергій Вачі
Режисер: Володимир Коваленко
Ролі озвучили: Андрій Бурлуцький і Наталя Ярошенко
Аудіо # 2:
мова: англійська
переклад: оригінал
кодек: 5.1
бітрейт: 1536 кбіт/с

Аудіо # 3:
мова: англійська
переклад: Commentary #1
кодек: 2.0
бітрейт: 192 кбіт/с

Аудіо # 4:
мова: англійська
переклад: Commentary #2
кодек: 2.0
бітрейт: 192 кбіт/с

Субтитри # 1-10:
мова: англійська, болгарська, чеська, фінська, французька, німецька, грецька, португальська, іспанська, шведська
тип: програмні (м'які)
формат: *.srt

Збережено оригінальні розділи, як на Blu-ray.
MediaInfo
Код:
General
Unique ID                                : 187128594416044095945919898405033404569 (0x8CC7A80623F26DEB8BB4675D6EFAE899)
Complete name                            : The Big Hit (1998) [Ukr,Eng sub.Multi] 720p [Hurtom & HDClub].mkv
Format                                   : Matroska
Format version                           : Version 4 / Version 2
File size                                : 5.99 GiB
Duration                                 : 1h 31mn
Overall bit rate                         : 9 376 Kbps
Movie name                               : Велика справа / The Big Hit (1998) 720p [Hurtom & HDCLUB]
Encoded date                             : UTC 2014-09-19 05:21:12
Writing application                      : mkvmerge v7.2.0 ('On Every Street') 64bit built on Sep 13 2014 15:52:10
Writing library                          : libebml v1.3.0 + libmatroska v1.4.1
DURATION                                 : 01:27:34.259000000
NUMBER_OF_FRAMES                         : 747
NUMBER_OF_BYTES                          : 29947
_STATISTICS_WRITING_APP                  : mkvmerge v7.2.0 ('On Every Street') 64bit built on Sep 13 2014 15:52:10
_STATISTICS_WRITING_DATE_UTC             : 2014-09-19 05:21:12
_STATISTICS_TAGS                         : BPS DURATION NUMBER_OF_FRAMES NUMBER_OF_BYTES

Video
ID                                       : 1
Format                                   : AVC
Format/Info                              : Advanced Video Codec
Format profile                           : [email protected]
Format settings, CABAC                   : Yes
Format settings, ReFrames                : 9 frames
Codec ID                                 : V_MPEG4/ISO/AVC
Duration                                 : 1h 31mn
Bit rate                                 : 7 104 Kbps
Width                                    : 1 280 pixels
Height                                   : 694 pixels
Display aspect ratio                     : 1.85:1
Frame rate mode                          : Constant
Frame rate                               : 23.976 fps
Color space                              : YUV
Chroma subsampling                       : 4:2:0
Bit depth                                : 8 bits
Scan type                                : Progressive
Bits/(Pixel*Frame)                       : 0.334
Stream size                              : 4.53 GiB (76%)
Title                                    : Велика справа / The Big Hit / Большое дело (1998) 720p [CRiSC]
Writing library                          : core 142 r2431 ac76440
Encoding settings                        : cabac=1 / ref=9 / deblock=1:-3:-3 / analyse=0x3:0x133 / me=tesa / subme=10 / psy=1 / psy_rd=1.00:0.00 / mixed_ref=1 / me_range=24 / chroma_me=1 / trellis=2 / 8x8dct=1 / cqm=0 / deadzone=21,11 / fast_pskip=0 / chroma_qp_offset=-2 / threads=12 / lookahead_threads=2 / sliced_threads=0 / nr=0 / decimate=1 / interlaced=0 / bluray_compat=0 / constrained_intra=0 / bframes=9 / b_pyramid=2 / b_adapt=2 / b_bias=0 / direct=3 / weightb=1 / open_gop=0 / weightp=2 / keyint=240 / keyint_min=23 / scenecut=40 / intra_refresh=0 / rc_lookahead=120 / rc=crf / mbtree=0 / crf=17.2 / qcomp=0.65 / qpmin=0 / qpmax=69 / qpstep=4 / vbv_maxrate=50000 / vbv_bufsize=62500 / crf_max=0.0 / nal_hrd=none / filler=0 / ip_ratio=1.30 / pb_ratio=1.20 / aq=1:1.00
Language                                 : English
Default                                  : Yes
Forced                                   : No

Audio #1
ID                                       : 2
Format                                   : AC-3
Format/Info                              : Audio Coding 3
Mode extension                           : CM (complete main)
Format settings, Endianness              : Big
Codec ID                                 : A_AC3
Duration                                 : 1h 31mn
Bit rate mode                            : Constant
Bit rate                                 : 192 Kbps
Channel(s)                               : 2 channels
Channel positions                        : Front: L R
Sampling rate                            : 48.0 KHz
Bit depth                                : 16 bits
Compression mode                         : Lossy
Stream size                              : 126 MiB (2%)
Title                                    : DVO [1+1] AC2 2.0 192 Kbps [Hurtom-bodia87]
Language                                 : Ukrainian
Default                                  : Yes
Forced                                   : No

Audio #2
ID                                       : 3
Format                                   :
Format/Info                              : Digital Theater Systems
Mode                                     : 16
Format settings, Endianness              : Big
Codec ID                                 : A_DTS
Duration                                 : 1h 31mn
Bit rate mode                            : Constant
Bit rate                                 : 1 510 Kbps
Channel(s)                               : 6 channels
Channel positions                        : Front: L C R, Side: L R, LFE
Sampling rate                            : 48.0 KHz
Bit depth                                : 16 bits
Compression mode                         : Lossy
Stream size                              : 987 MiB (16%)
Title                                    : Original 5.1 1536 Kbps
Language                                 : English
Default                                  : No
Forced                                   : No

Audio #3
ID                                       : 4
Format                                   : AC-3
Format/Info                              : Audio Coding 3
Format profile                           : Dolby Digital
Mode extension                           : CM (complete main)
Format settings, Endianness              : Big
Codec ID                                 : A_AC3
Duration                                 : 1h 31mn
Bit rate mode                            : Constant
Bit rate                                 : 192 Kbps
Channel(s)                               : 2 channels
Channel positions                        : Front: L R
Sampling rate                            : 48.0 KHz
Bit depth                                : 16 bits
Compression mode                         : Lossy
Stream size                              : 126 MiB (2%)
Title                                    : Commentary 1
Language                                 : English
Default                                  : No
Forced                                   : No

Audio #4
ID                                       : 5
Format                                   : AC-3
Format/Info                              : Audio Coding 3
Format profile                           : Dolby Digital
Mode extension                           : CM (complete main)
Format settings, Endianness              : Big
Codec ID                                 : A_AC3
Duration                                 : 1h 31mn
Bit rate mode                            : Constant
Bit rate                                 : 192 Kbps
Channel(s)                               : 2 channels
Channel positions                        : Front: L R
Sampling rate                            : 48.0 KHz
Bit depth                                : 16 bits
Compression mode                         : Lossy
Stream size                              : 126 MiB (2%)
Title                                    : Commentary 2
Language                                 : English
Default                                  : No
Forced                                   : No

Text #1
ID                                       : 6
Format                                   : UTF-8
Codec ID                                 : S_TEXT/UTF8
Codec ID/Info                            : UTF-8 Plain Text
Title                                    : Eng full
Language                                 : English
Default                                  : No
Forced                                   : No

Text #2
ID                                       : 7
Format                                   : UTF-8
Codec ID                                 : S_TEXT/UTF8
Codec ID/Info                            : UTF-8 Plain Text
Title                                    : Bulgarian full
Language                                 : Bulgarian
Default                                  : No
Forced                                   : No

Text #3
ID                                       : 8
Format                                   : UTF-8
Codec ID                                 : S_TEXT/UTF8
Codec ID/Info                            : UTF-8 Plain Text
Title                                    : Czech full
Language                                 : Czech
Default                                  : No
Forced                                   : No

Text #4
ID                                       : 9
Format                                   : UTF-8
Codec ID                                 : S_TEXT/UTF8
Codec ID/Info                            : UTF-8 Plain Text
Title                                    : Finnish full
Language                                 : Finnish
Default                                  : No
Forced                                   : No

Text #5
ID                                       : 10
Format                                   : UTF-8
Codec ID                                 : S_TEXT/UTF8
Codec ID/Info                            : UTF-8 Plain Text
Title                                    : French full
Language                                 : French
Default                                  : No
Forced                                   : No

Text #6
ID                                       : 11
Format                                   : UTF-8
Codec ID                                 : S_TEXT/UTF8
Codec ID/Info                            : UTF-8 Plain Text
Title                                    : German full
Language                                 : German
Default                                  : No
Forced                                   : No

Text #7
ID                                       : 12
Format                                   : UTF-8
Codec ID                                 : S_TEXT/UTF8
Codec ID/Info                            : UTF-8 Plain Text
Title                                    : Greek full
Language                                 : Greek
Default                                  : No
Forced                                   : No

Text #8
ID                                       : 13
Format                                   : UTF-8
Codec ID                                 : S_TEXT/UTF8
Codec ID/Info                            : UTF-8 Plain Text
Title                                    : Portuguese full
Language                                 : Portuguese
Default                                  : No
Forced                                   : No

Text #9
ID                                       : 14
Format                                   : UTF-8
Codec ID                                 : S_TEXT/UTF8
Codec ID/Info                            : UTF-8 Plain Text
Title                                    : Spanish full
Language                                 : Spanish
Default                                  : No
Forced                                   : No

Text #10
ID                                       : 15
Format                                   : UTF-8
Codec ID                                 : S_TEXT/UTF8
Codec ID/Info                            : UTF-8 Plain Text
Title                                    : Swedish full
Language                                 : Swedish
Default                                  : No
Forced                                   : No

Menu
00:00:00.000                             : :00:00:00.000
00:05:18.652                             : :00:05:18.652
00:13:46.534                             : :00:13:46.534
00:18:08.879                             : :00:18:08.879
00:22:13.624                             : :00:22:13.624
00:28:31.668                             : :00:28:31.668
00:34:54.926                             : :00:34:54.926
00:40:59.165                             : :00:40:59.165
00:56:24.506                             : :00:56:24.506
00:59:03.206                             : :00:59:03.206
01:06:28.860                             : :01:06:28.860
01:09:05.892                             : :01:09:05.892
01:16:05.352                             : :01:16:05.352
01:17:06.372                             : :01:17:06.372
01:20:42.838                             : :01:20:42.838
01:24:36.405                             : :01:24:36.405




Джерела та подяки: &
ріп відео - CRiSC, звук та субтитри - HDClub; першоджерело української доріжки - bodia87 (Гуртом).


ЗАЛИШАЙТЕСЬ ЯКОМОГА ДОВШЕ НА РОЗДАЧІ!

СКАЧАВ САМ - ДАЙ СКАЧАТИ ІНШИМ


Срібний реліз (на рейтинг впливає 50% завантаженого)
 Трекер:    Зареєстрований   

Завантажити / скачати фільм українською



відео для новачків



 Зареєстрований:   2014-09-21 22:05
 Розмір:   5.99 GB 
 Оцінка фільму:   3.6/10 (Голосів: 14)
   
Інші релізи
   Велика справа / The Big Hit (1998) Ukr/Eng bodia87  3 / 0   1.7 GB   2013-08-05 19:18 
Ваш часовий пояс: GMT + 2 Години

Нова тема   Відповісти