Завантажити та скачати торренти українською


Нація прибульців / Alien Nation (1988) 1080i Ukr/Eng | Sub Ukr/Eng

Нові коментарі

Нова тема   Відповісти
Автор Повідомлення
urij546724 
Відео Гуртом - фільмокрай
Відео Гуртом - фільмокрай


З нами з: 16.03.10
Востаннє: 04.12.16
Повідомлень: 5222

2014-09-20 17:49  
Нація прибульців / Alien Nation (1988) 1080i Ukr/Eng | Sub Ukr/Eng

Нація прибульців / Alien Nation (1988) 1080i Ukr/Eng | Sub Ukr/Eng


Жанр: фантастика, кримінал, драма
Країна: США



Кіностудія / кінокомпанія: American Entertainment Partners II L.P., Twentieth Century Fox Film Corporation
Режисер: Грем Бейкер (Graham Baker)
Актори: Джеймс Каан (James Caan), Менді Петінкін (Mandy Patinkin), Теренс Стемп (Terence Stamp), Кевін Мейджор Ховард (Kevyn Major Howard), Леслі Бевіс (Leslie Bevis), Пітер Джейсон (Peter Jason), Конрад Данн (Conrad Dunn), Джефф Кобер (Jeff Kober)...

Сюжет:
У пустелі Мохаве зазнав аварії величезний інопланетний космічний корабель, що перевозив 250 000 рабів з різних кінців Галактики. Прибульці стали жити серед людей, багато з яких були дуже вороже налаштовані по відношенню до «покидькам Всесвіту». Серед них - детектив Метью Сайкс, напарник якого загинув в перестрілці з бандою прибульців. Перебираючи папери загиблого друга, Метью робить відкриття: його вбили за те, що він намагався з'ясувати, чому прибульці так сліпо корилися своїм колишнім господарям. Коли в місті починають знаходити трупи прибульців, які померли від дивної хвороби, а на сторінки газет потрапляє знімок жахливої тварюки, Метью і його новий напарник, прибулець Джордж, змушені працювати разом, щоб розкрити таємницю цих подій ...
Media info
General
ID : 1 (0x1)
Complete name : E:\HD1\Alien Nation (1988) [ukr.2+2_ukr.TV+forICTV_eng_AC3_5.1, sub] 1080p [Hurtom] by urij546724.ts
Format : MPEG-TS
File size : 5.70 GiB
Duration : 1h 26mn
Overall bit rate mode : Variable
Overall bit rate : 9 477 Kbps
Maximum Overall bit rate : 35.5 Mbps

Video
ID : 4113 (0x1011)
Menu ID : 1 (0x1)
Format : AVC
Format/Info : Advanced Video Codec
Format profile : [email protected]
Format settings, CABAC : Yes
Format settings, ReFrames : 4 frames
Format settings, GOP : M=4, N=12
Codec ID : 27
Duration : 1h 26mn
Bit rate mode : Variable
Bit rate : 7 845 Kbps
Maximum bit rate : 40.0 Mbps
Width : 1 920 pixels
Height : 1 080 pixels
Display aspect ratio : 16:9
Frame rate : 25.000 fps
Color space : YUV
Chroma subsampling : 4:2:0
Bit depth : 8 bits
Scan type : Interlaced
Scan order : Top Field First
Bits/(Pixel*Frame) : 0.151
Stream size : 4.72 GiB (83%)
Color primaries : BT.709
Transfer characteristics : BT.709
Matrix coefficients : BT.709

Audio #1
ID : 4352 (0x1100)
Menu ID : 1 (0x1)
Format : AC-3
Format/Info : Audio Coding 3
Mode extension : CM (complete main)
Format settings, Endianness : Big
Codec ID : 129
Duration : 1h 26mn
Bit rate mode : Constant
Bit rate : 384 Kbps
Channel count : 6 channels
Channel positions : Front: L C R, Side: L R, LFE
Sampling rate : 48.0 KHz
Bit depth : 16 bits
Compression mode : Lossy
Stream size : 237 MiB (4%)
Language : Ukrainian

Audio #2
ID : 4353 (0x1101)
Menu ID : 1 (0x1)
Format : AC-3
Format/Info : Audio Coding 3
Mode extension : CM (complete main)
Format settings, Endianness : Big
Codec ID : 129
Duration : 1h 26mn
Bit rate mode : Constant
Bit rate : 384 Kbps
Channel count : 6 channels
Channel positions : Front: L C R, Side: L R, LFE
Sampling rate : 48.0 KHz
Bit depth : 16 bits
Compression mode : Lossy
Stream size : 237 MiB (4%)
Language : Ukrainian

Audio #3
ID : 4354 (0x1102)
Menu ID : 1 (0x1)
Format : AC-3
Format/Info : Audio Coding 3
Mode extension : CM (complete main)
Format settings, Endianness : Big
Codec ID : 129
Duration : 1h 26mn
Bit rate mode : Constant
Bit rate : 384 Kbps
Channel count : 6 channels
Channel positions : Front: L C R, Side: L R, LFE
Sampling rate : 48.0 KHz
Bit depth : 16 bits
Compression mode : Lossy
Stream size : 237 MiB (4%)
Language : English

Text #1
ID : 4608 (0x1200)
Menu ID : 1 (0x1)
Format : PGS
Codec ID : 144
Duration : 1h 26mn
Delay relative to video : 3s 800ms
Language : Ukrainian

Text #2
ID : 4609 (0x1201)
Menu ID : 1 (0x1)
Format : PGS
Codec ID : 144
Duration : 1h 25mn
Delay relative to video : 15s 720ms
Language : English
Тривалість: 1:26:09
Якість: 1080i
Відео:
кодек:
розмір кадру: 1920 х 1080
бітрейт: 7 845 кб/с
частота кадрів: 25 к/с (fps)

Аудіо #1:
мова: українська
переклад: двоголосий закадровий
кодек: 5.1
бітрейт: 384 кб/с
запис звуку з каналу: 2+2

Аудіо #2:
мова: українська
переклад: двоголосий закадровий
кодек: 5.1
бітрейт: 384 кб/с
озвучено: TV+ для ICTV
примітка: звук низької якості (запис з архіву)

Аудіо #3:
мова: англійська
переклад: оригінал
кодек: 5.1
бітрейт: 384 кб/с

Субтитри #1:
мова: українська
тип: програмні (м'які)
формат: *.pgs

Субтитри #2:
мова: англійська
тип: програмні (м'які)
формат: *.pgs

Скріншоти:





Трейлери:

Семпл
Джерело 1_________Джерело 2_________Джерело 3_________Джерело 4_________Джерело 5_________Джерело 6
У випадку, якщо з усіх джерел семпл видалять, прохання повідомити мені у ПРИВАТ


Подяка:

1. Пану karvai0 і Пану robotron005 за запис звуку з ТБ.


Реліз створено:

Особиста оцінка: Ще не дивився.


Срібний реліз (на рейтинг впливає 50% завантаженого)
 Трекер:    Зареєстрований   

Завантажити / скачати фільм українською



відео для новачків



 Зареєстрований:   2014-09-20 17:49
 Розмір:   5.7 GB 
 Оцінка фільму:   6/10 (Голосів: 7)
 Прохання залишати коментарі і не тікати з роздачі :-)
   
Ваш часовий пояс: GMT + 2 Години

Нова тема   Відповісти