Завантажити та скачати торренти українською


На західному фронті без змін / All Quiet on the Western Front (1930) 720p Ukr/Eng | sub Eng

Нові коментарі

Нова тема   Відповісти
Автор Повідомлення
Omikron 
VIP


З нами з: 03.01.12
Востаннє: 07.12.16
Повідомлень: 298

2014-09-20 11:54  
На західному фронті без змін / All Quiet on the Western Front (1930) 720p Ukr/Eng | sub Eng



Жанр: військова драма
Країна: США



Кінокомпанія: Universal Pictures
Режисер: Льюїс Майлстоун
Актори: Луїс Волгайм, Лью Ейрс, Джон Рей

Сюжет:
Розповідь про звичайних німецьких школярів старших класів, які під дією патріотичної пропаганди йдуть на війну, сприймаючи її як гру. Та вони не знають, що попереду їх чекає лише смерть. За романом Еріха Ремарка.


Українською мовою озвучено студією Омікрон на замовлення HURTOM.COM


Тривалість: 02:13:25
Якість:
Відео:
кодек:
розмір кадру: 984x720
бітрейт: 3867 кб/с
CRF: 21

Аудіо # 1:
мова: українська | Омікрон
переклад: двоголосий закадровий
кодек: 2.0
бітрейт: 224 кб/с

Аудіо # 2:
мова: англійська
переклад: оригінал
кодек: 2.0
бітрейт: 224 кб/с

Субтитри:
мова: англійська
тип: програмні (м'які)
формат: *.srt

Звіт MediaInfo
General
Unique ID : 241563572118783221784406579942325086408 (0xB5BB73A2B880952CB53E73A6DC75E8C8)
Complete name : All Quiet on the Western Front (1930) [ukr,eng] 720p [Hurtom].mkv
Format : Matroska
Format version : Version 4 / Version 2
File size : 4.10 GiB
Duration : 2h 13mn
Overall bit rate : 4 394 Kbps
Movie name : На західному фронті без змін / All Quiet on the Western Front (1930) [Hurtom]
Encoded date : UTC 2014-09-20 10:36:17
Writing application : mkvmerge v7.0.0 ('Where We Going') 32bit built on Jun 9 2014 15:08:34
Writing library : libebml v1.3.0 + libmatroska v1.4.1
DURATION : 02:08:46.568000000
NUMBER_OF_FRAMES : 1393
NUMBER_OF_BYTES : 54610
_STATISTICS_WRITING_APP : mkvmerge v7.0.0 ('Where We Going') 32bit built on Jun 9 2014 15:08:34
_STATISTICS_WRITING_DATE_UTC : 2014-09-20 10:36:17
_STATISTICS_TAGS : BPS DURATION NUMBER_OF_FRAMES NUMBER_OF_BYTES
Attachment : Yes

Video
ID : 1
Format : AVC
Format/Info : Advanced Video Codec
Format profile : [email protected]
Format settings, CABAC : Yes
Format settings, ReFrames : 8 frames
Codec ID : V_MPEG4/ISO/AVC
Duration : 2h 13mn
Bit rate : 3 859 Kbps
Width : 984 pixels
Height : 720 pixels
Display aspect ratio : 4:3
Frame rate mode : Constant
Frame rate : 23.976 fps
Color space : YUV
Chroma subsampling : 4:2:0
Bit depth : 8 bits
Scan type : Progressive
Bits/(Pixel*Frame) : 0.227
Stream size : 3.60 GiB (88%)
Writing library : core 142 r2453 ea0ca51
Encoding settings : cabac=1 / ref=8 / deblock=1:-1:-1 / analyse=0x3:0x133 / me=umh / subme=10 / psy=1 / psy_rd=1.00:0.15 / mixed_ref=1 / me_range=32 / chroma_me=1 / trellis=2 / 8x8dct=1 / cqm=0 / deadzone=21,11 / fast_pskip=0 / chroma_qp_offset=-3 / threads=12 / lookahead_threads=1 / sliced_threads=0 / nr=0 / decimate=1 / interlaced=0 / bluray_compat=0 / constrained_intra=0 / bframes=3 / b_pyramid=2 / b_adapt=2 / b_bias=0 / direct=3 / weightb=1 / open_gop=0 / weightp=2 / keyint=240 / keyint_min=23 / scenecut=40 / intra_refresh=0 / rc_lookahead=60 / rc=crf / mbtree=1 / crf=21.0 / qcomp=0.60 / qpmin=0 / qpmax=69 / qpstep=4 / vbv_maxrate=31250 / vbv_bufsize=31250 / crf_max=0.0 / nal_hrd=none / filler=0 / ip_ratio=1.40 / aq=1:1.00
Default : Yes
Forced : No
DURATION : 02:13:25.081000000
NUMBER_OF_FRAMES : 191930
NUMBER_OF_BYTES : 3946855569
_STATISTICS_WRITING_APP : mkvmerge v7.0.0 ('Where We Going') 32bit built on Jun 9 2014 15:08:34
_STATISTICS_WRITING_DATE_UTC : 2014-09-20 10:36:17
_STATISTICS_TAGS : BPS DURATION NUMBER_OF_FRAMES NUMBER_OF_BYTES

Audio #1
ID : 2
Format : AC-3
Format/Info : Audio Coding 3
Mode extension : CM (complete main)
Format settings, Endianness : Big
Codec ID : A_AC3
Duration : 2h 13mn
Bit rate mode : Constant
Bit rate : 224 Kbps
Channel(s) : 2 channels
Channel positions : Front: L R
Sampling rate : 48.0 KHz
Bit depth : 16 bits
Compression mode : Lossy
Stream size : 214 MiB (5%)
Title : Озвучено студією Омікрон на замовлення hurtom.com
Language : Ukrainian
Default : Yes
Forced : No

Audio #2
ID : 3
Format : AC-3
Format/Info : Audio Coding 3
Mode extension : CM (complete main)
Format settings, Endianness : Big
Codec ID : A_AC3
Duration : 2h 13mn
Bit rate mode : Constant
Bit rate : 224 Kbps
Channel(s) : 2 channels
Channel positions : Front: L R
Sampling rate : 48.0 KHz
Bit depth : 16 bits
Compression mode : Lossy
Stream size : 214 MiB (5%)
Title : Original
Language : English
Default : No
Forced : No

Text
ID : 4
Format : UTF-8
Codec ID : S_TEXT/UTF8
Codec ID/Info : UTF-8 Plain Text
Title : Original
Language : English
Default : No
Forced : No
log
[info]: frame I:1169 Avg QP:19.17 size:110874
[info]: frame P:51474 Avg QP:22.29 size: 37419
[info]: frame B:139287 Avg QP:24.41 size: 13577
[info]: consecutive B-frames: 0.9% 1.4% 17.1% 80.7%
[info]: mb I I16..4: 17.9% 64.7% 17.4%
[info]: mb P I16..4: 0.3% 11.5% 0.9% P16..4: 45.4% 19.0% 15.5% 0.4% 0.1% skip: 7.1%
[info]: mb B I16..4: 0.0% 2.4% 0.1% B16..8: 44.7% 7.0% 2.3% direct: 6.0% skip:37.5% L0:42.7% L1:48.9% BI: 8.4%
[info]: 8x8 transform intra:89.1% inter:63.9%
[info]: direct mvs spatial:99.9% temporal:0.1%
[info]: coded y,uvDC,uvAC intra: 95.9% 0.1% 0.0% inter: 25.7% 0.0% 0.0%
[info]: i16 v,h,dc,p: 20% 10% 38% 32%
[info]: i8 v,h,dc,ddl,ddr,vr,hd,vl,hu: 6% 8% 13% 10% 14% 12% 13% 10% 12%
[info]: i4 v,h,dc,ddl,ddr,vr,hd,vl,hu: 6% 7% 5% 10% 16% 14% 15% 12% 14%
[info]: i8c dc,h,v,p: 100% 0% 0% 0%
[info]: Weighted P-Frames: Y:33.9% UV:0.1%
[info]: ref P L0: 36.9% 11.3% 19.0% 9.0% 7.4% 5.8% 5.7% 3.3% 1.4% 0.2%
[info]: ref B L0: 73.6% 12.8% 5.5% 3.0% 2.3% 1.8% 1.0%
[info]: ref B L1: 94.9% 5.1%
[info]: kb/s:3944.35
Про озвучення

Українське озвучення створено в рамках проекту "Хочеш кіно українською? Замовляй!"



Дякуємо користувачам, що фінансово допомогли проекту:
[Captain], 4оrnyi, andnic, Anisimov Ivan, ArPoHoM, Aussie, awesome555, beller mia, BMK12, bovchyk, Bushido, Corwind, DaVoSe, deepfree, detonator1980, Dim-ON, dimon287, dimon387, dmaxim93, dmaxim93, don pedro, Dr.Cruncher, dunay, Duran, DеLight, edu07, elwolf, F_r_e_n_k, Fizia, forest17, forman1848, gaidamack, genauk, genauk, Golota, guriu, Gxost, Hello_ZB, igg, igor911, ilitbr, Immort, iva730, ivan vyrvyvuho, jabka, kahler, Kibonster, Kjam, Klen-Yavir, knedlyk, kpripper, kucher, kum33, Kush82, lejlafatiha, LeSSeR09, LudCok, lyolikaa, makstur, mamaMaria, Masanchick, MasterYura, maxun, mehlis1980, mich, morg, msi-145, NemoInFire, nemos, Nolex, okay, oleg.filyuk, OlehSH, Oleksandra, Oleshko, Olkos, ortt11 та Вишгород, OviniX, padla, pai1ripe, panama58, patlatyj1000, patriot2305, pesko, Pivoman, pony, ppau, Pylorama, Qualcuno, Rentoksana, romdoc, Roni, ros21, RST, rybanok27, sash_ok, sergey.sobol, serzholino, shakhtar3000, shtein, skuline, Snuryus, somnambula, Sovist, strategbob, super_sonic, Symargl12, TarasD, tbutko, Thaddeus, Timir, Tyler, V.P.Staryk, veto, VicOd, vifilo, Vikk, vilnuy, Virakocha (Тарас Юрах), Visent, Vovchyck, wantedeffect, whiteinwolf, Wivern, Woldemarchyk, Woldemarchyk, WorldMaster, xaoc1024, xBohdan, xfsthe, yarik_ratnik, zaika, дяк, Конечний Ростислав, Леді22, Надія, Надія, павло, чомусь, aromatherapy, Infoserfer, ludens, vecchio, urshula, nimrodel, slvnd, maxun, jandrus, molostov, kosmo.ua, urshula, skuline, hutei, Павло, Tetiana

Детальніше про проект.


Джерело:
Подяка за постер: Gelios

Фільми, які було озвучено на замовлення Гуртом (допоможіть озвучити наступні):
М: Місто шукає вбивцю (1931)
Чарівник країни Оз (1939)
Великий диктатор (1940)
Громадянин Кейн (1941)
Подвійна страховка (1944)
Це дивовижне життя (1946)
Викрадачі велосипедів (1948)
Рашьомон (1950)
Сім самураїв (1954)
У випадку вбивства телефонуйте "М" (1954)
Леді та Блудько (1955) нове
12 розгніваних чоловіків (1957)
Сьома печатка (1957)
На північ через північний захід (1959)
Більярдист (1961)
Охоронець (1961)
Вбити пересмішника (1962)
Людина, що вбила Ліберті Веленса (1962)
Вісім з половиною (1963)
Велика прогулянка (1966)
Як Ґрінч украв Різдво! (1966)
Випускник (1967)
Самурай (1967)
Одного разу на Дикому Заході (1968)
Коти-аристократи (1970)
Механічний апельсин (1971)
Навколо світу за 80 днів (1972) нове
Китайський квартал (1974)
Пролітаючи над гніздом зозулі (1975)
Телемережа (1976)
Енні Голл (1977) нове
Мисливець на оленів (1978)
Буття Брайана за Монті Пайтоном (1979)
Коли я буду там (1979)
Мангеттен (1979)
Людина-слон (1980)
Приборкання норовливого (1980)
Скажений бик (1980)
Підводний човен (1981)
Ґанді (1982)
Король комедії (1982) нове
Різдвяна історія (1983)
Амадей (1984)
Барва пурпурова (1985)
Бразилія (1985)
Ран (1985)
Великий мишачий детектив (1986)
Небесний замок Лапута (1986)
Акіра (1988)
Мій сусід Тоторо (1988)
Останній з могікан (1992)
Скажені пси (1992)
Шосе в нікуди (1997) нове
Американська історія Ікс (1998)
Страх і огида в Лас-Вегасі (1998)
Шоу Трумена (1998)
Догма (1999)
Магнолія (1999) нове
Сука любов (2000) нове
Нічия земля (2001)
Родина Тененбаумів (2001)
Тріо з Бельвіля (2003)
Труднощі перекладу (2003)
Бункер (2004)
Готель Руанда (2004)
Тренер Картер (2005)
Льодовиковий період 2 (2006)
Лабіринт Фавна (2006)
Людина з планети Земля (2007)
В тіні місяця (2007)
Голод (2008)
Іп Мен (2008)
Викрадена (2008)
Впусти мене (2008)
Хвиля (2008)
Містер Ніхто (2009)
13 вбивць (2010)
Бетмен: Під червоною маскою (2010)
Іп Мен 2 (2010)
Котяче життя (2010)
Позичайка Аріетті (2010)
Чорний Лебідь (2010)
Місто (2010)
Сенна (2010)
50/50 (2011)
Адвокат на лінкольні (2011)
Дерево життя (2011)
Опівночі в Парижі (2011)
Воїн (2011)
Драйв (2011)
Життя за один день (2011)
Укриття (2011)
Хижа в лісі (2011)
Рейд: Спокута (2011)
Акт вбивства (2012)
Арго (2012)
Безпека не гарантується (2012)
Викрадена 2 (2012)
Збірка промінців надії (2012)
Ернест і Селестіна (2012)
Звірі дикого Півдня (2012)
Лінкольн (2012)
Любов (2012)
Надійні хлопці (2012)
Паркер (2012)
Переваги скромників (2012)
Пліч-о-пліч (2012)
Полювання (2012)
Розірване коло (2012)
Суддя Дредд (2012)
Тридцять хвилин по півночі (2012)
Що б ви зробили (2012)
Американська афера (2013)
Виклик (2013)
Вона (2013)
Ворог (2013)
Всередині Л'ювіна Девіса (2013)
Джо (2013)
Зловісні мерці (2013)
Іда (2013)
Лок (2013)
Небраска (2013)
Неймовірна подорож містера Співета (2013) нове
Побічна дія (2013)
Перед північчю (2013)
Снігобур (2013)
Стокер (2013)
TPB: за межами клавіатури (2013)
Гниле місто (2013)
Бердмен (2014)
Вероніка Марс (2014)
Вроджена вада (2014) нове
Дика (2014) нове
Інтерв'ю (2014) нове
Святий Вінсент (2014)
Пісня моря (2014) нове
Призначення (2014) нове
Шеф-кухар (2014)


Авторський реліз (завантажувати можна без реєстрації)
 Трекер:    Зареєстрований   

Завантажити / скачати фільм українською



відео для новачків



 Зареєстрований:   2014-09-20 13:07
 Розмір:   4.1 GB 
 Оцінка фільму:   9.9/10 (Голосів: 20)
   
Ваш часовий пояс: GMT + 2 Години

Нова тема   Відповісти