Завантажити та скачати торренти українською


Стартрек: Відплата / Зоряний шлях: У пітьму / Star Trek Into Darkness [IMAX Edition] (2013) 720p Ukr/Eng | sub Ukr/Eng

Нові коментарі

Нова тема   Відповісти
Останній раз роздавалося n_tsynaiko (2016-04-13)
Автор Повідомлення
XXXVIRUS 
Частий відвідувач


З нами з: 15.06.10
Востаннє: 04.12.16
Повідомлень: 33

2014-09-17 14:27  
Стартрек: Відплата / Зоряний шлях: У пітьму / Star Trek Into Darkness [IMAX Edition] (2013) 720p Ukr/Eng | sub Ukr/Eng

Стартрек: Відплата / Зоряний шлях: У пітьму / Star Trek Into Darkness [IMAX Edition] (2013) 720p Ukr/Eng | sub Ukr/Eng


Жанр: фантастика , драма, бойовик
Країна: США



Кінокомпанія: Paramount Pictures Corporation
Режисер: Джей Джей Абрамс
Актори: Бенедикт Камбербетч, Кріс Пайн, Закарі Куінто, Зоі Салдана, Еліс Іве, Карл Урбан, Саймон Пегг, Антон Єльчин, Ноел Клар

Сюжет:
Коли команда Ентерпрайза отримує наказ повернутися додому, то бачить, що неспинна хвиля жаху, що йде зсередини їх власної організації, знищила флот і все, за що він бився, зануривши Землю в пучину кризи. Маючи також і особисті мотиви, капітан Кірк очолює переслідування у саме серце зони військового конфлікту, щоб схопити людину, яка і є тією самою зброєю масового ураження. Просуваючись уперед, наші герої стають учасниками грандіозної шахової партії, де на кону — життя. Тепер любов буде випробувана на міцність, дружні зв'язки розірвані, і багато що буде принесено в жертву для єдиної сім'ї, яка залишилася у Кірка — його команди.


Тривалість: 02:12:05
Якість: 720p (WiKi)
Відео:
кодек:
розмір кадру: 1280 x 720
бітрейт: 7500 кб/с

Аудіо # 1:
мова: українська
переклад: професійний дубльований
кодек: 5.1
бітрейт: 448 кб/с

Аудіо # 2:
мова: англійська
переклад: оригінал
кодек: 5.1
бітрейт: 640 кб/с

Аудіо # 3:
мова: англійська
переклад: Commentary
кодек: 2.0
бітрейт: 64 кб/с

Субтитри (Forced, Full):
мова: українська
тип: програмні (м'які)
формат: *.srt

Субтитри (Full, SDH, SDH Colored):
мова: англійська
тип: програмні (м'які)
формат: *.srt
MediaInfo
General
Unique ID : 214232599234799955461531957688513128339 (0xA12BB2A2903D1D76B777203E4050E793)
Complete name : E:\Фільми\720p\Star.Trek.Into.Darkness.2013.IMAX.720p.BluRay.-WiKi.Ukr.Eng.mkv
Format : Matroska
Format version : Version 2
File size : 7.98 GiB
Duration : 2h 12mn
Overall bit rate : 8 650 Kbps
Movie name : XXXVIRUS
Encoded date : UTC 2014-09-17 09:35:25
Writing application : mkvmerge v3.4.0 ('Rapunzel') збірка від May 18 2010 22:32:11
Writing library : libebml v0.8.0 + libmatroska v0.9.0

Video
ID : 1
Format : AVC
Format/Info : Advanced Video Codec
Format profile : [email protected]
Format settings, CABAC : Yes
Format settings, ReFrames : 9 frames
Codec ID : V_MPEG4/ISO/AVC
Duration : 2h 12mn
Nominal bit rate : 7 500 Kbps
Width : 1 280 pixels
Height : 720 pixels
Display aspect ratio : 16:9
Frame rate mode : Constant
Frame rate : 23.976 fps
Color space : YUV
Chroma subsampling : 4:2:0
Bit depth : 8 bits
Scan type : Progressive
Bits/(Pixel*Frame) : 0.339
Title : WiKi
Writing library : core 136 r2348+704+51 d1baef6 tMod [[email protected] X86]
Encoding settings : cabac=1 / ref=9 / deblock=1:-2:-2 / analyse=0x3:0x133 / me=umh / subme=11 / psy=1 / fade_compensate=0.00 / psy_rd=1.05:0.15 / mixed_ref=1 / me_range=32 / chroma_me=1 / trellis=2 / 8x8dct=1 / cqm=0 / deadzone=21,11 / fast_pskip=0 / chroma_qp_offset=-3 / threads=12 / lookahead_threads=3 / sliced_threads=0 / nr=0 / decimate=0 / interlaced=0 / bluray_compat=0 / constrained_intra=0 / fgo=0 / bframes=10 / b_pyramid=2 / b_adapt=2 / b_bias=0 / direct=3 / weightb=1 / open_gop=0 / weightp=2 / keyint=250 / keyint_min=23 / scenecut=40 / intra_refresh=0 / rc=2pass / mbtree=0 / bitrate=7500 / ratetol=1.0 / qcomp=0.70 / qpmin=0:0:0 / qpmax=69:69:69 / qpstep=4 / cplxblur=20.0 / qblur=0.5 / ip_ratio=1.40 / pb_ratio=1.30 / aq=1:0.75 / aq-sensitivity=10.00 / aq-factor=1.00:1.00:1.00 / aq2=0 / aq3=0
Language : English
Default : Yes
Forced : Yes

Audio #1
ID : 2
Format : AC-3
Format/Info : Audio Coding 3
Mode extension : CM (complete main)
Format settings, Endianness : Big
Codec ID : A_AC3
Duration : 2h 12mn
Bit rate mode : Constant
Bit rate : 448 Kbps
Channel(s) : 6 channels
Channel positions : Front: L C R, Side: L R, LFE
Sampling rate : 48.0 KHz
Bit depth : 16 bits
Compression mode : Lossy
Stream size : 423 MiB (5%)
Title : 5.1 @ 448 kb/s [R5]
Language : Ukrainian
Default : Yes
Forced : Yes

Audio #2
ID : 3
Format : AC-3
Format/Info : Audio Coding 3
Mode extension : CM (complete main)
Format settings, Endianness : Big
Codec ID : A_AC3
Duration : 2h 12mn
Bit rate mode : Constant
Bit rate : 640 Kbps
Channel(s) : 6 channels
Channel positions : Front: L C R, Side: L R, LFE
Sampling rate : 48.0 KHz
Bit depth : 16 bits
Compression mode : Lossy
Stream size : 605 MiB (7%)
Title : 5.1 @ 640 kb/s
Language : English
Default : No
Forced : No

Audio #3
ID : 4
Format :
Format/Info : Advanced Audio Codec
Format profile : HE- / LC
Codec ID : A_AAC
Duration : 2h 12mn
Channel(s) : 2 channels
Channel positions : Front: L R
Sampling rate : 48.0 KHz / 24.0 KHz
Compression mode : Lossy
Title : Commentary
Language : English
Default : No
Forced : No

Text #1
ID : 5
Format : UTF-8
Codec ID : S_TEXT/UTF8
Codec ID/Info : UTF-8 Plain Text
Title : Forced
Language : Ukrainian
Default : Yes
Forced : Yes

Text #2
ID : 6
Format : UTF-8
Codec ID : S_TEXT/UTF8
Codec ID/Info : UTF-8 Plain Text
Title : Full
Language : Ukrainian
Default : No
Forced : No

Text #3
ID : 7
Format : UTF-8
Codec ID : S_TEXT/UTF8
Codec ID/Info : UTF-8 Plain Text
Title : Full
Language : English
Default : No
Forced : No

Text #4
ID : 8
Format : UTF-8
Codec ID : S_TEXT/UTF8
Codec ID/Info : UTF-8 Plain Text
Title : SDH
Language : English
Default : No
Forced : No

Text #5
ID : 9
Format : UTF-8
Codec ID : S_TEXT/UTF8
Codec ID/Info : UTF-8 Plain Text
Title : SDH Colored
Language : English
Default : No
Forced : No

Menu
00:00:00.000 : en:00:00:00.000
00:10:20.370 : en:00:10:20.370
00:19:21.493 : en:00:19:21.493
00:30:03.969 : en:00:30:03.969
00:40:09.115 : en:00:40:09.115
00:46:05.262 : en:00:46:05.262
00:56:38.228 : en:00:56:38.228
01:06:35.783 : en:01:06:35.783
01:12:55.662 : en:01:12:55.662
01:22:45.752 : en:01:22:45.752
01:30:54.740 : en:01:30:54.740
01:38:36.368 : en:01:38:36.368
01:47:09.547 : en:01:47:09.547
01:54:17.141 : en:01:54:17.141
01:59:20.653 : en:01:59:20.653
02:03:18.307 : en:02:03:18.307
Скріншоти
Особиста оцінка: 8 - мені сподобалося


 Трекер:    Зареєстрований   

Завантажити / скачати фільм українською



відео для новачків



 Зареєстрований:   2014-09-17 14:27
 Розмір:   7.98 GB 
 Оцінка фільму:   8.7/10 (Голосів: 23)
   
Ваш часовий пояс: GMT + 2 Години

Нова тема   Відповісти