Завантажити та скачати торренти українською


Чаклунка / Maleficent (2014) 720p-mini (60fps)

Нові коментарі

Нова тема   Відповісти
Автор Повідомлення
Drool 
VIP


З нами з: 17.04.10
Востаннє: 05.12.16
Повідомлень: 1262

2014-09-15 22:36  
Чаклунка / Maleficent (2014) 720p-mini (60fps)

Жанр: фентезі, сімейний, пригода
Країна: США



Кінокомпанія: Moving Picture Company, Roth Films
Режисер: Роберт Стромберг
Актори: Анджеліна Джолі, Ель Фаннінґ, Шарлто Коплі, Сем Райлі, Імелда Стонтон, Джуно Темпл, Леслі Менвілл, Брентон Твайтес, Кеннет Кренем

Сюжет:
Юна чаклунка Малефісента вела відокремлене життя в зачарованому лісі, оточена казковими істотами, але одного разу все змінилося... В її світ вторглися люди, які принесли з собою руйнування і хаос, і Малефісенті довелося встати на захист своїх підданих, закликавши на допомогу могутні темні сили. У запалі боротьби Малефісента наклала страшне закляття на новонароджену дочку короля, прекрасну Аврору. Але, спостерігаючи за тим, як росте маленька принцеса, Малефісента починає сумніватися у правильності свого вчинку - адже, можливо, саме Аврора може вдихнути нове життя в чарівне лісове царство...


Тривалість: 01:37:28
Якість: 720p-mini
Відео:
кодек:
розмір кадру: 1280x534
бітрейт: 5270 кб/с
частота кадрів: 59.940 кадрів/с

Аудіо:
мова: українська
переклад: професійний дубльований
кодек: 5.1
бітрейт: 1536 кб/с
MediaInfo
General
Unique ID : 175938437756650878068551367780188506073 (0x845C82B459A1349E8A9BD518500B47D9)
Complete name : D:\Downloads\Maleficent.2014.Ukr.Dub..720p-mini.60 FPS.mkv
Format : Matroska
Format version : Version 4 / Version 2
File size : 4.62 GiB
Duration : 1h 37mn
Overall bit rate : 6 767 Kbps
Movie name : Чаклунка / Maleficent (2014) 720p-mini [60 FPS] | video by NNNB
Encoded date : UTC 2014-09-15 20:41:16
Writing application : mkvmerge v7.2.0 ('On Every Street') 64bit built on Sep 13 2014 15:52:10
Writing library : libebml v1.3.0 + libmatroska v1.4.1
_STATISTICS_WRITING_APP : mkvmerge v7.2.0 ('On Every Street') 64bit built on Sep 13 2014 15:52:10
_STATISTICS_WRITING_DATE_UTC : 2014-09-15 20:41:16
_STATISTICS_TAGS : BPS DURATION NUMBER_OF_FRAMES NUMBER_OF_BYTES
DURATION : 01:37:48.459000000
NUMBER_OF_FRAMES : 550168
NUMBER_OF_BYTES : 1107488184

Video
ID : 1
Format : AVC
Format/Info : Advanced Video Codec
Format profile : [email protected]
Format settings, CABAC : Yes
Format settings, ReFrames : 9 frames
Codec ID : V_MPEG4/ISO/AVC
Duration : 1h 37mn
Bit rate : 5 270 Kbps
Width : 1 280 pixels
Height : 534 pixels
Display aspect ratio : 2.40:1
Frame rate mode : Constant
Frame rate : 59.880 fps
Original frame rate : 59.940 fps
Color space : YUV
Chroma subsampling : 4:2:0
Bit depth : 8 bits
Scan type : Progressive
Bits/(Pixel*Frame) : 0.129
Stream size : 3.50 GiB (76%)
Title : Чаклунка / Maleficent (2014) 720p-mini [60 FPS] | video by NNNB
Writing library : core 130 r2273 b3065e6
Encoding settings : cabac=1 / ref=9 / deblock=1:0:0 / analyse=0x3:0x133 / me=umh / subme=10 / psy=1 / psy_rd=1.00:0.00 / mixed_ref=1 / me_range=32 / chroma_me=1 / trellis=2 / 8x8dct=1 / cqm=0 / deadzone=21,11 / fast_pskip=0 / chroma_qp_offset=-2 / threads=12 / lookahead_threads=2 / sliced_threads=0 / nr=0 / decimate=1 / interlaced=0 / bluray_compat=0 / constrained_intra=0 / bframes=9 / b_pyramid=2 / b_adapt=2 / b_bias=0 / direct=3 / weightb=1 / open_gop=0 / weightp=2 / keyint=250 / keyint_min=25 / scenecut=40 / intra_refresh=0 / rc=2pass / mbtree=0 / bitrate=5270 / ratetol=1.0 / qcomp=0.60 / qpmin=0 / qpmax=69 / qpstep=4 / cplxblur=20.0 / qblur=0.5 / ip_ratio=1.40 / pb_ratio=1.30 / aq=2:0.80
Default : Yes
Forced : No
_STATISTICS_WRITING_APP : mkvmerge v7.2.0 ('On Every Street') 64bit built on Sep 13 2014 15:52:10
_STATISTICS_WRITING_DATE_UTC : 2014-09-15 20:41:16
_STATISTICS_TAGS : BPS DURATION NUMBER_OF_FRAMES NUMBER_OF_BYTES
DURATION : 01:37:28.032000000
NUMBER_OF_FRAMES : 350531
NUMBER_OF_BYTES : 3853655794

Audio
ID : 2
Format :
Format/Info : Digital Theater Systems
Mode : 16
Format settings, Endianness : Big
Codec ID : A_DTS
Duration : 1h 37mn
Bit rate mode : Constant
Bit rate : 1 510 Kbps
Channel(s) : 6 channels
Channel positions : Front: L C R, Side: L R, LFE
Sampling rate : 48.0 KHz
Bit depth : 24 bits
Compression mode : Lossy
Delay relative to video : 750ms
Stream size : 1.03 GiB (22%)
Title : 5.1 @ 1536 kbps
Language : Ukrainian
Default : Yes
Forced : Yes
Скріншоти




Джерело:
Особиста оцінка: 9 - давно не бачив настільки якісне кіно


 Трекер:    Зареєстрований   

Завантажити / скачати фільм українською



відео для новачків



 Зареєстрований:   2014-09-15 22:55
 Розмір:   4.62 GB 
 Оцінка фільму:   9.8/10 (Голосів: 22)
   
Інші релізи
   Чаклунка / Maleficent (2014) [640 x 270] DmitryA  1 / 0   859 MB   2015-08-04 18:34 
   Чаклунка / Maleficent (2014) 1080p [60fps] Ukr/Eng | Sub Eng Estranded  1 / 0   8.53 GB   2014-10-03 11:09 
   Чаклунка / Maleficent (2014) 1080p 3D [Half OverUnder] Ukr/Eng 3d_reliz  8 / 0   8.71 GB   2014-09-28 19:07 
   Чаклунка / Maleficent (2014) 1080p Ukr/Eng | Sub Eng 11FrYkT  6 / 0   10.91 GB   2014-09-14 09:00 
   Чаклунка / Maleficent (2014) 720p Ukr/Eng | Sub Eng 11FrYkT  11 / 0   4.23 GB   2014-09-14 07:21 
   Чаклунка / Maleficent (2014) Gelios  24 / 0   1.45 GB   2014-09-13 13:50 
   Чаклунка / Maleficent (2014) AVC patriot2305  6 / 0   2.01 GB   2014-09-13 03:57 
bot 
робот


З нами з: 30.09.07
Востаннє: 26.05.05
Повідомлень: 15990

2014-09-15 22:38  
Тему перенесено з Фільми в HD до форуму Анонси релізів


Drool

bot 
робот


З нами з: 30.09.07
Востаннє: 26.05.05
Повідомлень: 15990

2014-09-15 22:55  
Тему перенесено з Анонси релізів до форуму Фільми в HD


Drool

Drool 
VIP


З нами з: 17.04.10
Востаннє: 05.12.16
Повідомлень: 1262

2014-09-15 23:04  
Велика подяка пану lnkvisitor за надання потужностей та інтернет-каналу Wink (1)
neo3703 
Свій


З нами з: 12.05.10
Востаннє: 30.11.16
Повідомлень: 77

2014-09-16 00:03  
а 1080p буде?
Drool 
VIP


З нами з: 17.04.10
Востаннє: 05.12.16
Повідомлень: 1262

2014-09-16 01:32  
neo3703 написано:
а 1080p буде?

Від мене - ні. Якщо знайдете такий відеоряд - справа кількох вилин.

viktorscream 
Новенький


З нами з: 05.07.13
Востаннє: 20.08.16
Повідомлень: 1

2014-09-21 08:13  
Drool
На руторі є HD 1080 60 fps. Могли б ви зробити реліз?

Drool 
VIP


З нами з: 17.04.10
Востаннє: 05.12.16
Повідомлень: 1262

2014-09-21 14:52  
viktorscream написано:
На руторі є HD 1080 60 fps. Могли б ви зробити реліз?

Здається, там його чомусь видалили, бо пошук привів мене на неіснуючу сторінку. Нагуглив на іншому ресурсі. Автор ріпа якийсь -=DANTE=-, хеш-сума: 6818f711b5609fe153414b725fbba5eda957dcbf
скріншоти ріпа:


Вага файлу 8.02 гектари. Для мого інтернету важкувато. Може, самотужки і викласти тут для інших? Я готовий надати консультативну допомогу.

Estranded 
VIP


З нами з: 09.02.14
Востаннє: 05.12.16
Повідомлень: 835

2014-09-27 11:04  
Який програвач найкраще підійде для фільму з 60fps?
Drool 
VIP


З нами з: 17.04.10
Востаннє: 05.12.16
Повідомлень: 1262

2014-09-27 19:07  
Estranded написано:
Який програвач найкраще підійде для фільму з 60fps?

Будь який. Головне - компьютер не дуже старий та слабкий.

Ваш часовий пояс: GMT + 2 Години

Нова тема   Відповісти