Завантажити та скачати торренти українською


Назад у майбутнє. Трилогія / Back to the Future. Trilogy (1985-1989-1990) AVC

Нові коментарі

Нова тема   Відповісти
Автор Повідомлення
NeetScrool 
Відео Гуртом - фільмокрай
Відео Гуртом - фільмокрай


З нами з: 10.01.13
Востаннє: 09.12.16
Повідомлень: 2222

2014-09-11 22:16  
Назад у майбутнє. Трилогія / Back to the Future. Trilogy (1985-1989-1990) AVC

Назад у майбутнє. Трилогія / Back to the Future. Trilogy (1985-1989-1990) AVC
Назад у майбутнє / Back to the Future (1985) AVC

Назад у майбутнє / Back to the Future (1985) AVC

Назад у майбутнє. Трилогія / Back to the Future. Trilogy (1985-1989-1990) AVC


«He's the only kid ever to get into trouble before he was born.»


Жанр: пригодницький, фантастика
Країна: США

Top 250 #49

Кіностудія / кінокомпанія: Universal Pictures, Amblin Entertainment, U-Drive Productions
Режисер: Роберт Земекіс (Robert Zemeckis)
Композитор: Алан Сільвестрі (Alan Silvestri)
Актори: Майкл Джей Фокс (Michael J. Fox), Крістофер Ллойд (Christopher Lloyd), Ліа Томпсон (Lea Thompson), Кріспін Ґловер (Crispin Glover), Томас Ф. Вілсон (Thomas F. Wilson), Клаудія Веллс (Claudia Wells), Біллі Зейн (Billy Zane) та інші.

Сюжет:
Підліток Марті за допомогою машини часу, спорудженої його другом професором Доком, потрапляє з 80-х в далекі 50-і. Там він зустрічається зі своїми майбутніми батьками, ще підлітками, і другом-професором, зовсім молодим.
Він порушує природний хід подій минулого, чим викликає безліч кумедних і драматичних ситуацій. Власна кмітливість і фантазія професора допомагають здолати всі перешкоди і успішно повернутися до себе, в свій час.
MediaInfo

General
Complete name : E:\RIP\Back_to_the_Future.mp4
Format : MPEG-4
Format profile : Base Media
Codec ID : isom
File size : 2.15 GiB
Duration : 1h 56mn
Overall bit rate mode : Variable
Overall bit rate : 2 651 Kbps
Encoded date : UTC 2014-08-27 02:38:44
Tagged date : UTC 2014-08-27 02:38:44

Video
ID : 1
Format : AVC
Format/Info : Advanced Video Codec
Format profile : [email protected]
Format settings, CABAC : Yes
Format settings, ReFrames : 6 frames
Codec ID : avc1
Codec ID/Info : Advanced Video Coding
Duration : 1h 56mn
Bit rate : 2 452 Kbps
Maximum bit rate : 12.6 Mbps
Width : 976 pixels
Height : 528 pixels
Display aspect ratio : 1.85:1
Frame rate mode : Constant
Frame rate : 23.976 fps
Color space : YUV
Chroma subsampling : 4:2:0
Bit depth : 8 bits
Scan type : Progressive
Bits/(Pixel*Frame) : 0.198
Stream size : 1.99 GiB (92%)
Writing library : core 130 r2273 b3065e6
Encoding settings : cabac=1 / ref=6 / deblock=1:-2:-2 / analyse=0x3:0x113 / me=umh / subme=9 / psy=1 / psy_rd=1.00:0.10 / mixed_ref=1 / me_range=20 / chroma_me=1 / trellis=1 / 8x8dct=1 / cqm=0 / deadzone=21,11 / fast_pskip=1 / chroma_qp_offset=-3 / threads=6 / lookahead_threads=1 / sliced_threads=0 / nr=0 / decimate=1 / interlaced=0 / bluray_compat=0 / constrained_intra=0 / bframes=8 / b_pyramid=2 / b_adapt=1 / b_bias=0 / direct=1 / weightb=1 / open_gop=0 / weightp=1 / keyint=230 / keyint_min=23 / scenecut=40 / intra_refresh=0 / rc_lookahead=40 / rc=2pass / mbtree=1 / bitrate=2452 / ratetol=1.0 / qcomp=0.37 / qpmin=0 / qpmax=60 / qpstep=7 / cplxblur=20.0 / qblur=0.5 / vbv_maxrate=15555 / vbv_bufsize=8444 / nal_hrd=none / ip_ratio=1.40 / aq=1:1.00
Encoded date : UTC 2014-08-27 02:38:44
Tagged date : UTC 2014-08-27 02:40:31

Audio
ID : 2
Format :
Format/Info : Advanced Audio Codec
Format profile : LC
Codec ID : 40
Duration : 1h 56mn
Bit rate mode : Variable
Bit rate : 196 Kbps
Maximum bit rate : 201 Kbps
Channel count : 2 channels
Channel positions : Front: L R
Sampling rate : 48.0 KHz
Compression mode : Lossy
Stream size : 163 MiB (7%)
Encoded date : UTC 2014-08-27 02:40:17
Tagged date : UTC 2014-08-27 02:40:31
Тривалість: 01:56:05
Якість: AVC
Відео:
кодек:
розмір кадру: 976 х 528
бітрейт: 2452 кб/с

Аудіо:
мова: українська
переклад: професійний дубльований
кодек: АС3 2.0
бітрейт: ~196 кб/с
Скріншоти

















Назад у майбутнє. Частина друга / Back to the Future Part II (1989) AVC

Назад у майбутнє. Частина друга / Back to the Future Part II (1989) AVC

Назад у майбутнє. Трилогія / Back to the Future. Trilogy (1985-1989-1990) AVC


«He's the only kid ever to get into trouble before he was born.»


Жанр: пригодницький, фантастика
Країна: США



Кіностудія / кінокомпанія: Universal Pictures, Amblin Entertainment, U-Drive Productions
Режисер: Роберт Земекіс (Robert Zemeckis)
Композитор: Алан Сільвестрі (Alan Silvestri)
Актори: Майкл Джей Фокс (Michael J. Fox), Крістофер Ллойд (Christopher Lloyd), Елізабет Шу (Elisabeth Shue), Кріспін Ґловер (Crispin Glover), Томас Ф. Вілсон (Thomas F. Wilson), Біллі Зейн (Billy Zane), Елайджа Вуд (Elijah Wood) та інші.

Сюжет:
Продовження фантастичної історії про пригоди у часі американського підлітка. Цього разу з допомогою модернізованої машини часу Марті з 80-х років потрапляє у майбутнє. Діти Марті в небезпеці, і їх потрібно рятувати. Коли Марті і Док повернулися назад у 1985 рік, то побачили зовсім інший світ, у якому мама Марті була одружена з ненависним Біфом, а батько помер 12 років тому. Виявляється, коли вони з Доком були у майбутньому, старий Біф викрав машину часу і змінив історію...
MediaInfo

General
Complete name : E:\RIP\Back_to_the_Future_II.mp4
Format : MPEG-4
Format profile : Base Media
Codec ID : isom
File size : 2.00 GiB
Duration : 1h 47mn
Overall bit rate mode : Variable
Overall bit rate : 2 651 Kbps
Encoded date : UTC 2014-08-27 10:06:49
Tagged date : UTC 2014-08-27 10:06:49

Video
ID : 1
Format : AVC
Format/Info : Advanced Video Codec
Format profile : [email protected]
Format settings, CABAC : Yes
Format settings, ReFrames : 6 frames
Codec ID : avc1
Codec ID/Info : Advanced Video Coding
Duration : 1h 47mn
Bit rate : 2 452 Kbps
Maximum bit rate : 11.8 Mbps
Width : 976 pixels
Height : 528 pixels
Display aspect ratio : 1.85:1
Frame rate mode : Constant
Frame rate : 23.976 fps
Color space : YUV
Chroma subsampling : 4:2:0
Bit depth : 8 bits
Scan type : Progressive
Bits/(Pixel*Frame) : 0.198
Stream size : 1.85 GiB (92%)
Writing library : core 130 r2273 b3065e6
Encoding settings : cabac=1 / ref=6 / deblock=1:-2:-2 / analyse=0x3:0x113 / me=umh / subme=9 / psy=1 / psy_rd=1.00:0.10 / mixed_ref=1 / me_range=20 / chroma_me=1 / trellis=1 / 8x8dct=1 / cqm=0 / deadzone=21,11 / fast_pskip=1 / chroma_qp_offset=-3 / threads=6 / lookahead_threads=1 / sliced_threads=0 / nr=0 / decimate=1 / interlaced=0 / bluray_compat=0 / constrained_intra=0 / bframes=8 / b_pyramid=2 / b_adapt=1 / b_bias=0 / direct=1 / weightb=1 / open_gop=0 / weightp=1 / keyint=230 / keyint_min=23 / scenecut=40 / intra_refresh=0 / rc_lookahead=40 / rc=2pass / mbtree=1 / bitrate=2452 / ratetol=1.0 / qcomp=0.37 / qpmin=0 / qpmax=60 / qpstep=7 / cplxblur=20.0 / qblur=0.5 / vbv_maxrate=15555 / vbv_bufsize=8444 / nal_hrd=none / ip_ratio=1.40 / aq=1:1.00
Encoded date : UTC 2014-08-27 10:06:49
Tagged date : UTC 2014-08-27 10:08:34

Audio
ID : 2
Format :
Format/Info : Advanced Audio Codec
Format profile : LC
Codec ID : 40
Duration : 1h 47mn
Bit rate mode : Variable
Bit rate : 196 Kbps
Maximum bit rate : 201 Kbps
Channel count : 2 channels
Channel positions : Front: L R
Sampling rate : 48.0 KHz
Compression mode : Lossy
Stream size : 151 MiB (7%)
Encoded date : UTC 2014-08-27 10:08:26
Tagged date : UTC 2014-08-27 10:08:34
Тривалість: 01:48:05
Якість: AVC
Відео:
кодек:
розмір кадру: 976 х 528
бітрейт: 2452 кб/с

Аудіо:
мова: українська
переклад: професійний дубльований
кодек: АС3 2.0
бітрейт: ~196 кб/с
Скріншоти

















Назад у майбутнє. Частина третя / Back To The Future Part III (1990) AVC

Назад у майбутнє. Частина третя / Back To The Future Part III (1990) AVC

Назад у майбутнє. Трилогія / Back to the Future. Trilogy (1985-1989-1990) AVC


«They've saved the best trip for last... But this time they may have gone too far.»


Жанр: пригодницький, фантастика
Країна: США



Кіностудія / кінокомпанія: Universal Pictures, Amblin Entertainment, U-Drive Productions
Режисер: Роберт Земекіс (Robert Zemeckis)
Композитор: Алан Сільвестрі (Alan Silvestri)
Актори: Майкл Джей Фокс (Michael J. Fox), Крістофер Ллойд (Christopher Lloyd), Ліа Томпсон (Lea Thompson), Кріспін Ґловер (Crispin Glover), Томас Ф. Вілсон (Thomas F. Wilson), Мері Стінбурґен (Mary Steenburgen), Елізабет Шу (Elisabeth Shue) та інші.

Сюжет:
Захоплююче завершення трилогії про подорожі у часі. Невтомний Марті МакФлай відправляється у 1885 рік на Дикий Захід до ковбоїв та індіанців, щоб знайти свого друга-вченого Дока. Марті сподівається змінити історію, інакше Дока повинні убити пострілом у спину. Щоправда, це не так просто, оскільки після прибуття на Дикий Захід у машини часу витікає бензин. А на той час у світі бензину ще не було, тому вони не можуть розігнати машину часу до потрібної швидкості...
MediaInfo

General
Complete name : E:\RIP\Back_to_the_Future_III.mp4
Format : MPEG-4
Format profile : Base Media
Codec ID : isom
File size : 2.19 GiB
Duration : 1h 58mn
Overall bit rate mode : Variable
Overall bit rate : 2 651 Kbps
Encoded date : UTC 2014-08-28 10:26:29
Tagged date : UTC 2014-08-28 10:26:29

Video
ID : 1
Format : AVC
Format/Info : Advanced Video Codec
Format profile : [email protected]
Format settings, CABAC : Yes
Format settings, ReFrames : 6 frames
Codec ID : avc1
Codec ID/Info : Advanced Video Coding
Duration : 1h 58mn
Bit rate : 2 452 Kbps
Maximum bit rate : 9 214 Kbps
Width : 976 pixels
Height : 528 pixels
Display aspect ratio : 1.85:1
Frame rate mode : Constant
Frame rate : 23.976 fps
Color space : YUV
Chroma subsampling : 4:2:0
Bit depth : 8 bits
Scan type : Progressive
Bits/(Pixel*Frame) : 0.198
Stream size : 2.03 GiB (92%)
Writing library : core 130 r2273 b3065e6
Encoding settings : cabac=1 / ref=6 / deblock=1:-2:-2 / analyse=0x3:0x113 / me=umh / subme=9 / psy=1 / psy_rd=1.00:0.10 / mixed_ref=1 / me_range=20 / chroma_me=1 / trellis=1 / 8x8dct=1 / cqm=0 / deadzone=21,11 / fast_pskip=1 / chroma_qp_offset=-3 / threads=6 / lookahead_threads=1 / sliced_threads=0 / nr=0 / decimate=1 / interlaced=0 / bluray_compat=0 / constrained_intra=0 / bframes=8 / b_pyramid=2 / b_adapt=1 / b_bias=0 / direct=1 / weightb=1 / open_gop=0 / weightp=1 / keyint=230 / keyint_min=23 / scenecut=40 / intra_refresh=0 / rc_lookahead=40 / rc=2pass / mbtree=1 / bitrate=2452 / ratetol=1.0 / qcomp=0.37 / qpmin=0 / qpmax=60 / qpstep=7 / cplxblur=20.0 / qblur=0.5 / vbv_maxrate=15555 / vbv_bufsize=8444 / nal_hrd=none / ip_ratio=1.40 / aq=1:1.00
Encoded date : UTC 2014-08-28 10:26:29
Tagged date : UTC 2014-08-28 10:28:39

Audio
ID : 2
Format :
Format/Info : Advanced Audio Codec
Format profile : LC
Codec ID : 40
Duration : 1h 58mn
Bit rate mode : Variable
Bit rate : 196 Kbps
Maximum bit rate : 202 Kbps
Channel count : 2 channels
Channel positions : Front: L R
Sampling rate : 48.0 KHz
Compression mode : Lossy
Stream size : 166 MiB (7%)
Encoded date : UTC 2014-08-28 10:28:20
Tagged date : UTC 2014-08-28 10:28:39
Тривалість: 01:58:25
Якість: AVC
Відео:
кодек:
розмір кадру: 976 х 528
бітрейт: 2452 кб/с

Аудіо:
мова: українська
переклад: професійний дубльований
кодек: АС3 2.0
бітрейт: ~196 кб/с
Скріншоти

















Стиль оформлення взяв з роздачі Віктора: https://toloka.to/t19193
Дубляж взяв звідси: https://toloka.to/t58566


 Трекер:    Зареєстрований   

Завантажити / скачати фільм українською



відео для новачків



 Зареєстрований:   2014-09-13 11:19
 Розмір:   6.34 GB 
 Оцінка фільму:   9.6/10 (Голосів: 60)
   
bot 
робот


З нами з: 30.09.07
Востаннє: 26.05.05
Повідомлень: 16042

2014-09-11 22:16  
Тему перенесено з Фільми до форуму Анонси релізів


NeetScrool

ultracrip 
Новенький


З нами з: 15.04.14
Востаннє: 13.11.16
Повідомлень: 21

2014-09-11 22:28  
О, а це буде цікаво!!! Коли очікувати?
NeetScrool 
Відео Гуртом - фільмокрай
Відео Гуртом - фільмокрай


З нами з: 10.01.13
Востаннє: 09.12.16
Повідомлень: 2222

2014-09-11 22:55  
Якщо забити на оформлення, то хоч зараз.
ultracrip 
Новенький


З нами з: 15.04.14
Востаннє: 13.11.16
Повідомлень: 21

2014-09-12 19:37  
Цитата:
Якщо забити на оформлення, то хоч зараз.

З оформленням допомога потрібна?

bot 
робот


З нами з: 30.09.07
Востаннє: 26.05.05
Повідомлень: 16042

2014-09-13 11:14  
Тему перенесено з Анонси релізів до форуму Фільми


NeetScrool

Snakeeater 
Свій


З нами з: 22.09.08
Востаннє: 07.12.16
Повідомлень: 66

2014-09-14 11:25  
Ну скажу що дубляж це добре, але мені більше подобаються старі переклади. Напевно це тому що памятаю з дитинства! За реліз дякую.
lordfaust 
Забанено
Забанено


З нами з: 19.12.11
Востаннє: 19.10.14
Повідомлень: 13

2014-09-19 17:11  
Гівняна озвучка. Стара значно краще. Ця штучно звучить. Бридко дивитись.
ua2004 
Відео Гуртом - фільмокрай
Відео Гуртом - фільмокрай


З нами з: 31.01.08
Востаннє: 06.12.16
Повідомлень: 3128

2014-11-01 14:50  
lordfaust написано:
Гівняна озвучка. Стара значно краще. Ця штучно звучить. Бридко дивитись.

Ти ще не бачив рос. дубляж. Ото блювота.

de_funes 
Частий відвідувач


З нами з: 12.09.11
Востаннє: 09.12.16
Повідомлень: 45

2014-11-10 20:50  
Також підтримую, стара озвучка є більш звичною, плюс багато фраз у голові вже закарбувалися)
sedit 
Новенький


З нами з: 01.11.10
Востаннє: 09.12.16
Повідомлень: 9

2015-02-23 21:52  
жахливо, я гіршої озвучки ще не чув. Таке відчуття, що гугл транслейт розмовляє. Від 1+1 набагато кращий дубляж. Пропоную замінити або добавити доріжку.
Skorpiom 
Новенький


З нами з: 16.05.10
Востаннє: 04.12.16
Повідомлень: 7

2015-06-22 17:41  
Дякую. Мені переклад сподобався, але якщо є можливість добавити інші переклади було б непогано!
kirovetz 
Новенький


З нами з: 16.10.11
Востаннє: 09.12.16
Повідомлень: 15

2015-10-29 10:30  
Дубляж це класно, але це моно звук, скажіть можна сподіватись на 5,1.
MrRyanCooper 
VIP


З нами з: 23.08.12
Востаннє: 08.12.16
Повідомлень: 282

2015-11-13 21:24  
Ого, укр дубляж до фільмів, які вийшли, коли я ще в школу не ходив. Оце крутяк!
NeetScrool 
Відео Гуртом - фільмокрай
Відео Гуртом - фільмокрай


З нами з: 10.01.13
Востаннє: 09.12.16
Повідомлень: 2222

2015-11-14 21:58  
kirovetz написано:
Дубляж це класно, але це моно звук, скажіть можна сподіватись на 5,1.

Мабуть, ні.

Toky 
Свій


З нами з: 06.07.09
Востаннє: 09.12.16
Повідомлень: 105

2016-01-02 22:55  
Один з найкращих фантастичних фільмів який я коли-небудь бачив! Дякую!
dreamer 
VIP


З нами з: 10.05.08
Востаннє: 08.12.16
Повідомлень: 305

2016-02-07 12:16  
дякую за чудові фільми українською....одна з найкращих трилогій..
Ваш часовий пояс: GMT + 2 Години

Нова тема   Відповісти