Завантажити та скачати торренти українською


Токійська повість / Tôkyô monogatari / Tokyo Story (1953) 720p Jap | sub Ukr/Eng

Нові коментарі

Нова тема   Відповісти
Останній раз роздавалося maxym10 (2016-11-27)
Автор Повідомлення
antusyrzhuk 
Свій


З нами з: 09.06.09
Востаннє: 19.11.16
Повідомлень: 145

2014-09-11 10:42  
Токійська повість / Tôkyô monogatari / Tokyo Story (1953) 720p Jap | sub Ukr/Eng

Токійська повість / Tôkyô monogatari / Tokyo Story (1953) 720p Jap | sub Ukr/Eng


Жанр: драма
Країна: Японія



Кінокомпанія: Shôchiku Eiga
Режисер: Ясудзіро Одзу (Yasujirô Ozu)
Актори: Тісю Рю (Chishû Ryû), Сетсуко Хара (Setsuko Hara), Харуко Сугімура (Haruko Sugimura), Со Ямамура (Sô Yamamura) та ін.

Сюжет:
Трагікомічний фільм, неперевершена кінострічка Ясудзіро Одзу. Старенькі батьки вирішують навідати своїх дітей у Токіо, проте у дітей банально немає на них часу. А деякі навіть відверто заявляють, що тепер старі для них – лише тягар. Тому замість того щоб провести час із батьками, діти тільки платять за те, щоб старі відпочили на курорті… для молодят, де їм, м’яко кажучи, некомфортно. Лише Норіко, невістка, хоч і чоловік її давно помер, виявляє шану його батькам. Старі повертаються додому і… Далі дивіться вже самі.

Фільм про природню річ: з віком людина огрубляється, і навіть не через злість, а через повсякденні клопоти власного життя віддаляється від своїх батьків.


Тривалість: 02:17:10
Якість:
Відео:
кодек:
розмір кадру: 958 х 720
бітрейт: 5337 кб/с

Аудіо:
мова: японська
переклад: оригінал
кодек: mono
бітрейт: 640 кб/с

Субтитри:
мова: українська
тип: програмні (м'які)
формат: *.ass
переклад з англійської: Sjanyk San за участі antusyrzhuk

Субтитри:
мова: англійська
тип: пререндерні
формат: *.sub + *.idx

Субтитри:
мова: англійська
тип: пререндерні
формат: *.sup
MediaInfo
Format : Matroska
Format version : Version 4 / Version 2
File size : 5.84 GiB
Duration : 2h 17mn
Overall bit rate : 6 098 Kbps
Movie name : Tôkyô monogatari*1953 /Sjanyk
Encoded date : UTC 2014-07-19 10:04:36
Writing application : mkvmerge v7.0.0 ('Where We Going') 64bit built on Jun 9 2014 15:16:27
Writing library : libebml v1.3.0 + libmatroska v1.4.1
DURATION : 02:16:24.610000000
NUMBER_OF_FRAMES : 1199
NUMBER_OF_BYTES : 92781
_STATISTICS_WRITING_APP : mkvmerge v7.0.0 ('Where We Going') 64bit built on Jun 9 2014 15:16:27
_STATISTICS_WRITING_DATE_UTC : 2014-07-19 10:04:36
_STATISTICS_TAGS : BPS DURATION NUMBER_OF_FRAMES NUMBER_OF_BYTES

Video
ID : 1
Format : AVC
Format/Info : Advanced Video Codec
Format profile : [email protected]
Format settings, CABAC : Yes
Format settings, ReFrames : 5 frames
Codec ID : V_MPEG4/ISO/AVC
Duration : 2h 17mn
Bit rate : 5 337 Kbps
Width : 958 pixels
Height : 720 pixels
Display aspect ratio : 4:3
Frame rate mode : Constant
Frame rate : 23.976 fps
Color space : YUV
Chroma subsampling : 4:2:0
Bit depth : 8 bits
Scan type : Progressive
Bits/(Pixel*Frame) : 0.323
Stream size : 5.11 GiB (88%)
Language : English
Default : Yes
Forced : No
DURATION : 02:17:10.014000000
NUMBER_OF_FRAMES : 197323
NUMBER_OF_BYTES : 5603864485
_STATISTICS_WRITING_APP : mkvmerge v7.0.0 ('Where We Going') 64bit built on Jun 9 2014 15:16:27
_STATISTICS_WRITING_DATE_UTC : 2014-07-19 10:04:36
_STATISTICS_TAGS : BPS DURATION NUMBER_OF_FRAMES NUMBER_OF_BYTES

Audio
ID : 2
Format : AC-3
Format/Info : Audio Coding 3
Mode extension : CM (complete main)
Format settings, Endianness : Big
Codec ID : A_AC3
Duration : 2h 17mn
Bit rate mode : Constant
Bit rate : 640 Kbps
Channel(s) : 1 channel
Channel positions : Front: C
Sampling rate : 48.0 KHz
Bit depth : 16 bits
Compression mode : Lossy
Stream size : 628 MiB (10%)
Language : Japanese
Default : Yes
Forced : No

Text #1
ID : 3
Format : ASS
Codec ID : S_TEXT/ASS
Codec ID/Info : Advanced Sub Station Alpha
Compression mode : Lossless
Language : Ukrainian
Default : Yes
Forced : No

Text #2
ID : 4
Format : VobSub
Muxing mode : zlib
Codec ID : S_VOBSUB
Codec ID/Info : The same subtitle format used on DVDs
Language : English
Default : No
Forced : No

Text #3
ID : 5
Format : PGS
Muxing mode : zlib
Codec ID : S_HDMV/PGS
Codec ID/Info : The same subtitle format used on BDs/HD-DVDs
Language : English
Default : No
Forced : No
Скріншоти



Джерело: &
Особиста оцінка: 10 - без зайвих вагань рекомендую всім!


Золотий реліз (завантажене не впливає на рейтинг)
 Трекер:    Зареєстрований   

Завантажити / скачати фільм українською



відео для новачків



 Зареєстрований:   2014-09-11 10:42
 Розмір:   5.84 GB 
 Оцінка фільму:   9.6/10 (Голосів: 5)
   
yuranako 
VIP


З нами з: 03.11.10
Востаннє: 05.12.16
Повідомлень: 1139

2014-09-11 16:32  
Модератори, а чому не проявився спойлер "Інші релізи"? Адже є ще такий реліз - http://toloka.to/t40238
igor911 
Відео Гуртом
Відео Гуртом


З нами з: 18.01.08
Востаннє: 05.12.16
Повідомлень: 5144

2014-09-11 19:05  
Я не знаю алгоритму роботи скрипта "інші релізи", але за спостереженнями якщо назва істотно відрізняється (особливо кількість символів "/" та зміст після першого "/", за яким здебільшого іде оригінальна назва), то "інші релізи" не відображаються.
Я б додав у Правила, щоб альтернативні назви фільму писали не через "/", а в дужках (), тоді все буде гаразд.
Запитай у Конфуціуса.

Ваш часовий пояс: GMT + 2 Години

Нова тема   Відповісти