Завантажити та скачати торренти українською


Vitalij Kuprij (Віталій Купрій) - Extreme Measures (1998, Japanese Ed. 2000) [FLAC] | Neoclassical Metal

Нові коментарі

Нова тема   Відповісти
Останній раз роздавалося ssTAss (2016-11-27)
Автор Повідомлення
ssTAss 
Модератор музики


З нами з: 05.07.08
Востаннє: 03.12.16
Повідомлень: 10932

2014-09-07 19:31  
Vitalij Kuprij (Віталій Купрій) - Extreme Measures (1998, Japanese Ed. 2000) [FLAC] | Neoclassical Metal

Vitalij Kuprij (Віталій Купрій) - Extreme Measures (1998, Japanese Ed. 2000) [FLAC] | Neoclassical Metal


Стиль: Neo Classic Metal
Країна, місто: Україна, Київ
Сайти: Офіційний сайт
Видавець: RoadRunner Records
Виконавці:
Vitalij Kuprij - клавішні
George Bellas - гітари
John Onder - бас
Jon Doman - ударні
Пісні:
    01 - Prologue
    02 - Destination
    03 - Extreme Measures
    04 - Depression
    05 - Chopin Etude #11 in A minor opus 25
    06 - Crying in the Shadows
    07 - Track on Fire
    08 - Chopin Etude #12 in C minor opus 25
    09 - Intrigue
    10 - L.V.Beethoven 32 Variations in C minor
    11 - Epilogue - Improvvisation on a theme by J.S.Bach
log
Exact Audio Copy V1.0 beta 3 from 29. August 2011

EAC extraction logfile from 1. June 2014, 13:44

Vitalij Kuprij / Extreme Measures

Used drive : ATAPI iHAS122 W Adapter: 2 ID: 0

Read mode : Secure
Utilize accurate stream : Yes
Defeat audio cache : Yes
Make use of C2 pointers : No

Read offset correction : 48
Overread into Lead-In and Lead-Out : No
Fill up missing offset samples with silence : Yes
Delete leading and trailing silent blocks : No
Null samples used in CRC calculations : Yes
Used interface : Installed external ASPI interface

Used output format : User Defined Encoder
Selected bitrate : 1024 kBit/s
Quality : High
Add ID3 tag : No
Command line compressor : C:\Program Files\FLAC\flac.exe
Additional command line options : -V -8 -T "Date=%year%" -T "Genre=%genre%" -T"COMMENT=Ripped by Ilijan" -8 -V %source%

TOC of the extracted CD

Track | Start | Length | Start sector | End sector
---------------------------------------------------------
1 | 0:00.00 | 1:04.10 | 0 | 4809
2 | 1:04.10 | 9:10.37 | 4810 | 46096
3 | 10:14.47 | 7:31.30 | 46097 | 79951
4 | 17:46.02 | 6:14.50 | 79952 | 108051
5 | 24:00.52 | 3:56.73 | 108052 | 125824
6 | 27:57.50 | 5:02.35 | 125825 | 148509
7 | 33:00.10 | 5:43.67 | 148510 | 174301
8 | 38:44.02 | 2:30.53 | 174302 | 185604
9 | 41:14.55 | 4:57.47 | 185605 | 207926
10 | 46:12.27 | 10:32.40 | 207927 | 255366
11 | 56:44.67 | 5:18.08 | 255367 | 279224

Range status and errors

Selected range

Filename D:\Ilijan\Vitalij Kuprij - Extreme Measures.wav

Peak level 100.0 %
Extraction speed 4.4 X
Range quality 100.0 %
Test CRC 31D4B3FD
Copy CRC 31D4B3FD
Copy OK

No errors occurred

AccurateRip summary

Track 1 accurately ripped (confidence 1) [9D9D8A64] (AR v2)
Track 2 accurately ripped (confidence 1) [4755198F] (AR v2)
Track 3 accurately ripped (confidence 1) [35A9506C] (AR v2)
Track 4 accurately ripped (confidence 1) [22278C23] (AR v2)
Track 5 accurately ripped (confidence 1) [9954136D] (AR v2)
Track 6 accurately ripped (confidence 1) [221AD870] (AR v2)
Track 7 accurately ripped (confidence 1) [81BA3D0E] (AR v2)
Track 8 accurately ripped (confidence 1) [6C890E86] (AR v2)
Track 9 accurately ripped (confidence 1) [9724C274] (AR v2)
Track 10 accurately ripped (confidence 1) [62F866E9] (AR v2)
Track 11 accurately ripped (confidence 1) [E7F0F0D4] (AR v2)

All tracks accurately ripped

End of status report

---- CUETools DB Plugin V2.1.3

[CTDB TOCID: k97b1o0g5iJIZBN7hUXPNL1iqeg-] disk not present in database, Submit result: k97b1o0g5iJIZBN7hUXPNL1iqeg- has been uploaded

==== Log checksum 48BC7F5C80C2E4BF893C5E9F2D9DE1F82463722515AD06283A597EEA137C1F33 ====
fooCDtect
fooCDtect - foobar2000 + auCDtect, baralgin.

auCDtect: CD records authenticity detector, version 0.8.2
Copyright (c) 2004 Oleg Berngardt. All rights reserved.
Copyright (c) 2004 Alexander Djourik. All rights reserved.

mode: 0

===========================================
Track: 01 - Prologue
Quality: CDDA 100%
===========================================
Track: 02 - Destination
Quality: CDDA 100%
===========================================
Track: 03 - Extreme Measures
Quality: CDDA 100%
===========================================
Track: 04 - Depression
Quality: CDDA 100%
===========================================
Track: 05 - Chopin Etude #11 In A Minor Opus 25
Quality: CDDA 42%
===========================================
Track: 06 - Crying In The Shadows
Quality: CDDA 100%
===========================================
Track: 07 - Track On Fire
Quality: CDDA 100%
===========================================
Track: 08 - Chopin Etude #12 In C Minor Opus 25
Quality: MPEG 100%
===========================================
Track: 09 - Intrigue
Quality: CDDA 100%
===========================================
Track: 10 - L.V. Beethoven 32 Variations In C Minor
Quality: CDDA 100%
===========================================
Track: 11 - Epilogue - Improvisation On A Theme By J.S. Bach
Quality: CDDA 100%
===========================================
Тривалість: 01:02:03
Мова: відсутня
Аудіо-кодек: FLAC
Бітрейт: 954 кб/с
Джерело: MeTaLMaDNeSS.TeaM, ріп ilijan

Якщо Ви справді бажаєте підтримати українське - після прослуховування, якщо музика вам сподобалась,
придбайте ліцензійний диск.
Підтримаймо вітчизняних виконавців!


Срібний реліз (на рейтинг впливає 50% завантаженого)
 Трекер:    Зареєстрований   

Завантажити / скачати українську музику



відео для новачків



 Зареєстрований:   2014-09-07 19:31
 Розмір:   449 MB 
 Оцінка музики:   4.6/10 (Голосів: 5)
   
ssTAss 
Модератор музики


З нами з: 05.07.08
Востаннє: 03.12.16
Повідомлень: 10932

2014-09-07 19:33  
незабаром ще декілька альбомів
Ваш часовий пояс: GMT + 2 Години

Нова тема   Відповісти