Завантажити та скачати торренти українською


Це все вона / She's All That (1999) 720p 2xUkr/Eng | Sub Eng

Нові коментарі

Нова тема   Відповісти
Автор Повідомлення
yura-pro 
Частий відвідувач


З нами з: 11.10.09
Востаннє: 08.12.16
Повідомлень: 30

2014-09-03 18:20  
Це все вона / She's All That (1999) 720p 2xUkr/Eng | Sub Eng



Це все вона / She's All That (1999) 720p 2xUkr/Eng | Sub Eng



Жанр: мелодрама, комедія
Країна: США



Кінокомпанія: Miramax Films
Режисер: Роберт Ісков
Актори: Фредді Принц молодший, Рейчел Лі Кук, Пол Уокер, Метью Ліллард, Джоді Лін Окіф та інші

Сюжет:
Зак Сайлер - найпопулярніший із старшокласників, предмет обожнювання вчителів і зітхання дівчат. Він староста класу, капітан футбольної команди і один із перших по успішності. Безперечно, Зак стане королем випускного балу, але... цього щасливчика зраджує королева.
Зак і Тейлор вважалися кращою парою в школі, але Тейлор, особа зарозуміла і з величезною зарозумілістю кидає Зака за шість тижнів до шкільного балу. Невдачі на любовному фронті могли зломити будь-кого, але не Зака Сайлера. Він береться «зробити» собі нову королеву! Зак укладає з друзями парі, що за шість тижнів перетворить на справжню красуню будь-яку дівчину у класі.
Вибір падає на Ленні, очкасту «ботанічку» з хорошою фігурою, захованою під мішкуватим одягом. Ця дівчина - дуже запущений екземпляр! Пігмаліон береться за роботу і... звичайно, закохується в свою Галатею.
Чи знаєте ви, що...
  • Школа «Torrance High», в якій велися зйомки, пізніше буде показана в «Недитячих іграх». Вона ж з'являлася, як «Sunnydale High» у телесеріалі «Баффі - переможниця вампірів», а також як середня школа в «Беверлі-Гіллз, 90210».
  • У фільмі звучить пісня «Kiss Me» поп-гурту «Sixpence None the Richer».
Тривалість: 01:35:40
Якість: 720p [CHD]
Відео:
кодек:
розмір кадру: 1280 х 694
бітрейт: 5985 кб/с

Аудіо # 1:
мова: українська
переклад: двоголосий закадровий
кодек: 5.1
бітрейт: 384 кб/с
Джерело озвучення:


Аудіо # 2:
мова: українська
переклад: двоголосий закадровий
кодек: 5.1
бітрейт: 384 кб/с
примітка: на місця без перекладу звук від нового каналу (~2 хв.)
Джерело озвучення:


Аудіо # 3:
мова: англійська
переклад: оригінал
кодек: -HD 5.1
бітрейт: 1509 кб/с

Субтитри:
мова: англійська
тип: програмні (м'які)
формат: *.srt

Завантажити звукову доріжку: Аудіо # 1 Аудіо # 2

MediaInfo
General
Unique ID : 195173454513463084140569118408384757735 (0x92D50A400AA8E0BFB16F118C8518BFE7)
Complete name : D:\Video\Movie\Shes All That (1999) 720p [UKR_ENG] [Hurtom].mkv
Format : Matroska
Format version : Version 4 / Version 2
File size : 5.52 GiB
Duration : 1h 35mn
Overall bit rate : 8 263 Kbps
Movie name : Shes.All.That.1999.BluRay.720p..-CHD [hurtom.com]
Encoded date : UTC 2014-09-03 14:42:44
Writing application : mkvmerge v7.1.0 ('Good Love') 64bit built on Jul 27 2014 13:06:55
Writing library : libebml v1.3.0 + libmatroska v1.4.1
DURATION : 01:35:40.000000000
NUMBER_OF_FRAMES : 179375
NUMBER_OF_BYTES : 275520000
_STATISTICS_WRITING_APP : mkvmerge v7.1.0 ('Good Love') 64bit built on Jul 27 2014 13:06:55
_STATISTICS_WRITING_DATE_UTC : 2014-09-03 14:42:44
_STATISTICS_TAGS : BPS DURATION NUMBER_OF_FRAMES NUMBER_OF_BYTES

Video
ID : 1
Format : AVC
Format/Info : Advanced Video Codec
Format profile : [email protected]
Format settings, CABAC : Yes
Format settings, ReFrames : 9 frames
Codec ID : V_MPEG4/ISO/AVC
Duration : 1h 35mn
Bit rate : 5 985 Kbps
Width : 1 280 pixels
Height : 694 pixels
Display aspect ratio : 1.85:1
Frame rate mode : Constant
Frame rate : 23.976 fps
Color space : YUV
Chroma subsampling : 4:2:0
Bit depth : 8 bits
Scan type : Progressive
Bits/(Pixel*Frame) : 0.281
Stream size : 3.89 GiB (70%)
Title : Shes.All.That.1999.BluRay.720p..-CHD
Writing library : core 119 r2106+636 fcb18f7
Encoding settings : cabac=1 / ref=9 / deblock=1:-3:-3 / analyse=0x3:0x113 / me=umh / subme=10 / psy=1 / fade_compensate=0.00 / psy_rd=1.05:0.10 / mixed_ref=1 / me_range=32 / chroma_me=1 / trellis=2 / 8x8dct=1 / cqm=1 / deadzone=21,11 / fast_pskip=0 / chroma_qp_offset=-2 / threads=12 / sliced_threads=0 / nr=0 / decimate=1 / interlaced=0 / bluray_compat=0 / constrained_intra=0 / fgo=0 / bframes=6 / b_pyramid=2 / b_adapt=2 / b_bias=0 / direct=3 / weightb=1 / open_gop=0 / weightp=2 / keyint=250 / keyint_min=23 / scenecut=40 / intra_refresh=0 / rc_lookahead=40 / rc=2pass / mbtree=1 / bitrate=5985 / ratetol=1.0 / qcomp=0.70 / qpmin=3 / qpmax=69 / qpstep=4 / cplxblur=20.0 / qblur=0.5 / vbv_maxrate=40000 / vbv_bufsize=30000 / nal_hrd=none / ip_ratio=1.40 / aq=2:1.00
Language : English
Default : Yes
Forced : No
DURATION : 01:35:39.521000000
NUMBER_OF_FRAMES : 137611
NUMBER_OF_BYTES : 4293497012
_STATISTICS_WRITING_APP : mkvmerge v7.1.0 ('Good Love') 64bit built on Jul 27 2014 13:06:55
_STATISTICS_WRITING_DATE_UTC : 2014-09-03 14:42:44
_STATISTICS_TAGS : BPS DURATION NUMBER_OF_FRAMES NUMBER_OF_BYTES

Audio #1
ID : 2
Format : AC-3
Format/Info : Audio Coding 3
Mode extension : CM (complete main)
Format settings, Endianness : Big
Codec ID : A_AC3
Duration : 1h 35mn
Bit rate mode : Constant
Bit rate : 384 Kbps
Channel(s) : 6 channels
Channel positions : Front: L C R, Side: L R, LFE
Sampling rate : 48.0 KHz
Bit depth : 16 bits
Compression mode : Lossy
Stream size : 263 MiB (5%)
Title : Novy Channel
Language : Ukrainian
Default : Yes
Forced : No

Audio #2
ID : 3
Format : AC-3
Format/Info : Audio Coding 3
Mode extension : CM (complete main)
Format settings, Endianness : Big
Codec ID : A_AC3
Duration : 1h 35mn
Bit rate mode : Constant
Bit rate : 384 Kbps
Channel(s) : 6 channels
Channel positions : Front: L C R, Side: L R, LFE
Sampling rate : 48.0 KHz
Bit depth : 16 bits
Compression mode : Lossy
Stream size : 263 MiB (5%)
Title : 1plus1 Channel
Language : Ukrainian
Default : No
Forced : No

Audio #3
ID : 4
Format :
Format/Info : Digital Theater Systems
Mode : 16
Format settings, Endianness : Big
Codec ID : A_DTS
Duration : 1h 35mn
Bit rate mode : Constant
Bit rate : 1 509 Kbps
Channel(s) : 6 channels
Channel positions : Front: L C R, Side: L R, LFE
Sampling rate : 48.0 KHz
Bit depth : 24 bits
Compression mode : Lossy
Stream size : 1.01 GiB (18%)
Language : English
Default : No
Forced : No

Text
ID : 5
Format : UTF-8
Codec ID : S_TEXT/UTF8
Codec ID/Info : UTF-8 Plain Text
Language : English
Default : No
Forced : No

Menu
00:00:00.000 : en:00:00:00.000
00:09:33.990 : en:00:09:33.990
00:14:13.352 : en:00:14:13.352
00:20:37.820 : en:00:20:37.820
00:26:21.997 : en:00:26:21.997
00:33:50.862 : en:00:33:50.862
00:36:11.378 : en:00:36:11.378
00:39:52.098 : en:00:39:52.098
00:50:40.996 : en:00:50:40.996
00:59:51.254 : en:00:59:51.254
01:05:16.496 : en:01:05:16.496
01:08:18.511 : en:01:08:18.511
01:11:29.869 : en:01:11:29.869
01:14:41.477 : en:01:14:41.477
01:22:06.255 : en:01:22:06.255
01:30:40.644 : en:01:30:40.644
Скріншоти


Джерело:
Подяка за звук: DemsOFF, ua2004 та MutuLI


Срібний реліз (на рейтинг впливає 50% завантаженого)
 Трекер:    Зареєстрований   

Завантажити / скачати фільм українською



відео для новачків



 Зареєстрований:   2014-09-03 18:20
 Розмір:   5.52 GB 
 Оцінка фільму:   10/10 (Голосів: 9)
   
Інші релізи
   Це все вона / She's All That (1999) 3xUkr/Eng | Sub Eng lenina4040  1 / 0   1.97 GB   2015-05-16 11:57 
Ваш часовий пояс: GMT + 2 Години

Нова тема   Відповісти