Завантажити та скачати торренти українською


Август Раш / August Rush (2007) 720p Ukr/Eng | Sub Eng

Нові коментарі

Нова тема   Відповісти
Останній раз роздавалося мамбо (2016-12-10)
Автор Повідомлення
Legato 
Новенький


З нами з: 24.03.10
Востаннє: 10.12.16
Повідомлень: 3

2014-09-01 00:46  
Август Раш / August Rush (2007) 720p Ukr/Eng

Август Раш / August Rush (2007) 720p Ukr/Eng | Sub Eng


Жанр: драма, мелодрама, сімейний, музичний
Країна: США



Кінокомпанія: Warner Bros. Pictures, Southpaw Entertainment, CJ Entertainment
Режисер: Керстен Шерідан / Kirsten Sheridan
Актори: Фредді Хаймор, Кері Расселл, Джонатан Ріс-Майерс, Терренс Ховард Дешон, Робін Вільямс, Вільям Седлер, Меріен Селдес, Майкелті Вільямсон, Леон Дж. Томас III, Аарон Стетон

Сюжет:
Молодий харизматичний ірландський гітарист і американська віолончелістка з престижної сім'ї полюбили один одного. Після чарівної зустрічі в Нью-Йорку, обставини виявляються сильнішими за них і вони змушені розлучитися. Народжена дитина, Август Раш, по настільки ж нещасливому збігу обставин опиняється в одному з нью-йоркських притулків.


Тривалість: 01:53:37
Якість:
Відео:
кодек:
розмір кадру: 1280 x 534
бітрейт: 4810 кб/с

Аудіо # 1:
мова: українська
переклад: багатоголосий закадровий
кодек: 5.1
бітрейт: 448 кб/с

Аудіо # 2:
мова: англійська
переклад: оригінал
кодек: 2.0
бітрейт: 128 кб/с

Субтитри:
мова: англійська
тип: програмні (м'які)
формат: *.srt
MediaInfo

General
Unique ID : 222689111476130774553058421664600650319 (0xA7885CE0FDA351ABAA5D3CCC5679724F)
Complete name : D:\Downloads\Август.Раш.2007.Ukr.Eng.BluRay 720p..mkv
Format : Matroska
Format version : Version 2
File size : 4.28 GiB
Duration : 1h 53mn
Overall bit rate : 5 388 Kbps
Movie name : Август Раш / August Rush (2007) AVC îò FireBit
Encoded date : UTC 2014-08-31 21:31:56
Writing application : mkvmerge v3.3.0 ('Language') built on Mar 24 2010 14:59:24
Writing library : libebml v0.8.0 + libmatroska v0.9.0
Video #1
ID : 1
Format : AVC
Format/Info : Advanced Video Codec
Format profile : [email protected]
Format settings, CABAC : Yes
Format settings, ReFrames : 11 frames
Codec ID : V_MPEG4/ISO/AVC
Duration : 1h 53mn
Bit rate : 4 810 Kbps
Width : 1 280 pixels
Height : 534 pixels
Display aspect ratio : 2.40:1
Frame rate mode : Constant
Frame rate : 23.976 fps
Color space : YUV
Chroma subsampling : 4:2:0
Bit depth : 8 bits
Scan type : Progressive
Bits/(Pixel*Frame) : 0.294
Stream size : 3.73 GiB (87%)
Title : http://firebit.org
Writing library : core 115 r1995 c1e60b9
Encoding settings : cabac=1 / ref=11 / deblock=1:-3:-3 / analyse=0x3:0x113 / me=umh / subme=9 / psy=1 / psy_rd=1.00:0.00 / mixed_ref=1 / me_range=24 / chroma_me=1 / trellis=2 / 8x8dct=1 / cqm=0 / deadzone=21,11 / fast_pskip=1 / chroma_qp_offset=-2 / threads=6 / sliced_threads=0 / nr=0 / decimate=1 / interlaced=0 / bluray_compat=0 / constrained_intra=0 / bframes=7 / b_pyramid=2 / b_adapt=2 / b_bias=0 / direct=3 / weightb=1 / open_gop=0 / weightp=2 / keyint=250 / keyint_min=23 / scenecut=40 / intra_refresh=0 / rc=2pass / mbtree=0 / bitrate=4810 / ratetol=1.0 / qcomp=0.60 / qpmin=0 / qpmax=69 / qpstep=4 / cplxblur=20.0 / qblur=0.5 / ip_ratio=1.40 / pb_ratio=1.30 / aq=1:0.70
Language : English
Default : Yes
Forced : No
Audio #2
ID : 2
Format : AC-3
Format/Info : Audio Coding 3
Mode extension : CM (complete main)
Format settings, Endianness : Big
Codec ID : A_AC3
Duration : 1h 53mn
Bit rate mode : Constant
Bit rate : 128 Kbps
Channel(s) : 2 channels
Channel positions : Front: L R
Sampling rate : 48.0 KHz
Bit depth : 16 bits
Compression mode : Lossy
Stream size : 104 MiB (2%)
Title : http://firebit.org
Language : English
Default : No
Forced : No
Audio #4
ID : 4
Format : AC-3
Format/Info : Audio Coding 3
Mode extension : CM (complete main)
Format settings, Endianness : Big
Codec ID : A_AC3
Duration : 1h 53mn
Bit rate mode : Constant
Bit rate : 448 Kbps
Channel(s) : 6 channels
Channel positions : Front: L C R, Side: L R, LFE
Sampling rate : 48.0 KHz
Bit depth : 16 bits
Compression mode : Lossy
Stream size : 364 MiB (8%)
Language : Ukrainian
Default : Yes
Forced : No
Text #3
ID : 3
Format : UTF-8
Codec ID : S_TEXT/UTF8
Codec ID/Info : UTF-8 Plain Text
Title : http://firebit.org
Language : English
Default : No
Forced : No
Скріншоти








Особиста оцінка: 10 - без зайвих вагань рекомендую всім!


 Трекер:    Зареєстрований   

Завантажити / скачати фільм українською



відео для новачків



 Зареєстрований:   2014-09-01 00:46
 Розмір:   4.28 GB 
 Оцінка фільму:   9.8/10 (Голосів: 17)
   
Інші релізи
   Авґуст Раш / August Rush (2007) 2хUkr/Eng | Sub Ukr/Eng patriot2305  4 / 1   1.97 GB   2013-05-14 08:54 
   Авґуст Раш / August Rush (2007) Ukr/Eng | Sub Ukr Mister rock  6 / 0   2.18 GB   2011-07-07 20:53 
Legato 
Новенький


З нами з: 24.03.10
Востаннє: 10.12.16
Повідомлень: 3

2014-09-01 00:54  
Не судіть суворо - це моя перша роздача.
SpottiHate 
Свій


З нами з: 27.01.12
Востаннє: 18.10.16
Повідомлень: 50

2014-09-01 03:46  
трохи засопливе кінцо, але все ж гарне
10alexs 
VIP


З нами з: 26.02.09
Востаннє: 11.12.16
Повідомлень: 296

2014-09-01 14:56  
Першоклане, 96% мило! Не знаю нащо я його колись дивився, адже в жанрі чітко написано "мелодрама, сімейний, музичний "
wolesj 
VIP


З нами з: 15.07.12
Востаннє: 09.12.16
Повідомлень: 392

2014-09-01 17:38  
Для тих, хто не читає класику. А хто її тепер читає? Happy

Незважаючи на жанр "мелодрама", фільм не з найгірших

11FrYkT 
Модератор відео


З нами з: 20.02.11
Востаннє: 11.12.16
Повідомлень: 3141

2014-09-01 18:01  
Legato , додайте звіт медіаінфо, скріншоти перезалийте в форматі PNG, оригінальна доріжка в HD обов*язкова, скріншоти вставляйте як ВВ код
Legato 
Новенький


З нами з: 24.03.10
Востаннє: 10.12.16
Повідомлень: 3

2014-09-01 21:43  
Зараз поправлю. Оригінальна доріжка є, просто вказати забув.
мамбо 
Поважний учасник


З нами з: 23.12.11
Востаннє: 10.12.16
Повідомлень: 208

2016-09-18 20:55  
Станьте на роздачу!!!
Ваш часовий пояс: GMT + 2 Години

Нова тема   Відповісти