Завантажити та скачати торренти українською


Білий полон / Eight Below (2006) 720p Ukr/Eng | Sub Ukr/Eng

Нові коментарі

Нова тема   Відповісти
Автор Повідомлення
braveboy 
Відео Гуртом - команда HD
Відео Гуртом - команда HD


З нами з: 15.06.10
Востаннє: 29.10.16
Повідомлень: 958

2014-08-31 18:29  

Білий полон / Eight Below (2006) 720p Ukr/Eng | Sub Ukr/Eng


Білий полон / Eight Below (2006) 720p Ukr/Eng | Sub Ukr/Eng


«The Most Amazing Story Of Survival, Friendship, And Adventure Ever Told.»


Жанр: пригодницький, драма, сімейний
Країна: США



Кінокомпанія: Walt Disney Pictures, Spyglass Entertainment, Mandeville Films
Режисер: Френк Маршалл
Актори: Пол Вокер, Брюс Ґрінвуд, Мун Блудґуд, Джейсон Біґґз, Джерард Планкетт, Август Шелленберґ, Венді Крюсон, Белінда Мец, Коннор Крістофер Левінс, Дункан Фрайзер, Ден Зіск

Сюжет:
Дія фільму розгортається на безкрайніх просторах Антарктики. Наукова експедиція, до складу якої входять Джеррі Шепард, його кращий друг Купер і геолог, відправляється на пошуки метеорита. Однак несподівана подія і важкі погодні умови змушують їх залишити свої собачі упряжки і повернутися назад. І тепер вісім собак повинні протягом шести місяців боротися за виживання в крижаній пустелі і чекати, поки їх врятують...



Тривалість: 02:00:23
Якість: 720p
Відео:
кодек:
розмір кадру: 1280 х 534
бітрейт: 4558 кб/с

Аудіо # 1:
мова: українська
переклад: професійний дубльований
кодек: 2.0
бітрейт: 192 кб/с

Аудіо # 2:
мова: англійська
переклад: оригінал
кодек: 5.1
бітрейт: 640 кб/с

Джерело озвучення:


Субтитри:
мова: українська
тип: програмні (м'які)
формат: *.srt

Субтитри:
мова: англійська
тип: програмні (м'які)
формат: *.srt
MediaInfo
Video
ID : 1
Format : AVC
Format/Info : Advanced Video Codec
Format profile : [email protected]
Format settings, CABAC : Yes
Format settings, ReFrames : 11 frames
Codec ID : V_MPEG4/ISO/AVC
Duration : 2h 0mn
Bit rate : 4 558 Kbps
Width : 1 280 pixels
Height : 534 pixels
Display aspect ratio : 2.40:1
Frame rate mode : Constant
Frame rate : 23.976 fps
Color space : YUV
Chroma subsampling : 4:2:0
Bit depth : 8 bits
Scan type : Progressive
Bits/(Pixel*Frame) : 0.278
Stream size : 3.74 GiB (83%)
Title : Eight Below (2006)
Writing library : core 119 r2106 07efeb4
Encoding settings : cabac=1 / ref=11 / deblock=1:-3:-3 / analyse=0x3:0x133 / me=umh / subme=10 / psy=1 / psy_rd=0.95:0.00 / mixed_ref=1 / me_range=24 / chroma_me=1 / trellis=2 / 8x8dct=1 / cqm=0 / deadzone=21,11 / fast_pskip=0 / chroma_qp_offset=-2 / threads=6 / sliced_threads=0 / nr=0 / decimate=1 / interlaced=0 / bluray_compat=0 / constrained_intra=0 / bframes=6 / b_pyramid=2 / b_adapt=2 / b_bias=0 / direct=3 / weightb=1 / open_gop=0 / weightp=2 / keyint=250 / keyint_min=23 / scenecut=40 / intra_refresh=0 / rc_lookahead=60 / rc=2pass / mbtree=0 / bitrate=4558 / ratetol=1.0 / qcomp=0.60 / qpmin=0 / qpmax=69 / qpstep=4 / cplxblur=20.0 / qblur=0.5 / vbv_maxrate=50000 / vbv_bufsize=50000 / nal_hrd=none / ip_ratio=1.40 / pb_ratio=1.30 / aq=1:0.70
Language : English
Default : Yes
Forced : No
_STATISTICS_WRITING_APP : mkvmerge v7.1.0 ('Good Love') 64bit built on Jul 27 2014 13:06:55
_STATISTICS_WRITING_DATE_UTC : 2014-08-31 16:07:30
_STATISTICS_TAGS : BPS DURATION NUMBER_OF_FRAMES NUMBER_OF_BYTES
DURATION : 02:00:24.593000000
NUMBER_OF_FRAMES : 173217
NUMBER_OF_BYTES : 4114289161

Audio #1
ID : 2
Format : AC-3
Format/Info : Audio Coding 3
Mode extension : CM (complete main)
Format settings, Endianness : Big
Codec ID : A_AC3
Duration : 2h 0mn
Bit rate mode : Constant
Bit rate : 192 Kbps
Channel(s) : 2 channels
Channel positions : Front: L R
Sampling rate : 48.0 KHz
Bit depth : 16 bits
Compression mode : Lossy
Stream size : 165 MiB (4%)
Title : 2.0 @ 192 kbps [TET]
Language : Ukrainian
Default : Yes
Forced : No

Audio #2
ID : 3
Format : AC-3
Format/Info : Audio Coding 3
Mode extension : CM (complete main)
Format settings, Endianness : Big
Codec ID : A_AC3
Duration : 2h 0mn
Bit rate mode : Constant
Bit rate : 640 Kbps
Channel(s) : 6 channels
Channel positions : Front: L C R, Side: L R, LFE
Sampling rate : 48.0 KHz
Bit depth : 16 bits
Compression mode : Lossy
Stream size : 551 MiB (12%)
Title : 5.1 640 Kbps [Оригинал]
Language : English
Default : No
Forced : No

Text #1
ID : 4
Format : UTF-8
Codec ID : S_TEXT/UTF8
Codec ID/Info : UTF-8 Plain Text
Title : Full
Language : English
Default : No
Forced : No

Text #2
ID : 5
Format : UTF-8
Codec ID : S_TEXT/UTF8
Codec ID/Info : UTF-8 Plain Text
Title : Full
Language : Ukrainian
Default : No
Forced : No

Menu
00:00:00.000 : en:Opening Credits
00:04:22.929 : en:Bottom of the Planet
00:14:58.439 : en:The Expedition
00:22:54.790 : en:Melbourne
00:30:10.767 : en:Impending Storm
00:39:53.516 : en:Evacuation
00:54:29.141 : en:On Your Own
01:01:39.487 : en:Deep Winter
01:07:02.560 : en:Can't Let Go
01:19:23.759 : en:Teamwork
01:28:35.226 : en:Hope
01:37:59.665 : en:Return to the Base
01:43:03.052 : en:One More
01:52:54.976 : en:Ending Credits
Скріншоти





 Трекер:    Зареєстрований   

Завантажити / скачати фільм українською



відео для новачків



 Зареєстрований:   2014-08-31 18:32
 Розмір:   4.53 GB 
 Оцінка фільму:   9.8/10 (Голосів: 23)
   
Інші релізи
   Білий полон / Eight Below (2006) Ukr/Eng | Sub Ukr/Eng karvai0  6 / 0   2.18 GB   2014-09-13 10:05 
   Білий полон / Eight Below (2006) AVC 2xUkr/Eng | Sub Ukr/Eng Gelios  13 / 0   1.45 GB   2014-08-29 15:52 
andrew101 
Новенький


З нами з: 12.11.10
Востаннє: 29.08.16
Повідомлень: 8

2014-09-02 01:20  
Радий що нарешті з'явився укр переклад бо дивився з перекладом від окупантів, перегляну із задоволенням іще раз ! ! !
Ваш часовий пояс: GMT + 2 Години

Нова тема   Відповісти