Завантажити та скачати торренти українською


VA - Фестиваль "Рок-Екзистенція 2000" (2CD) (2000) [APE] | Rock

Нові коментарі

Нова тема   Відповісти
Автор Повідомлення
civ 
VIP


З нами з: 16.02.11
Востаннє: 06.12.16
Повідомлень: 429

2014-08-29 23:54  
VA - Фестиваль "Рок-Екзистенція 2000" (2CD) (2000) [APE] | Rock

VA - Фестиваль "Рок-Екзистенція 2000" (2CD) (2000) [APE] | Rock


Стиль: Rock / Alternative
Видавець: JRC
CD1

Пісні:
    01. Рок Екзистенція 2000
    02. Щастя – Сніг
    03. Збий попілз – Лялька
    04. Фактично самі – Я така маленька
    05. Вежа хмар – Зоряні вовки
    06. Джек о'Лентерн – Країна весни
    07. Nameless – Два крилечки
    08. Esperanza – Перевертень
    09. Далеко – Колискова
    10. Жандарми – Рибачка
    11. Плач Єремії – Коридор
    12. Небесна копалина – Сплять янголи
    13. Крихітка Цахес – Джерела

Тривалість: 00:50:19
Мова: українська
Аудіо-кодек: APE
Бітрейт: 881 кб/с
EAC Log

Exact Audio Copy V1.0 beta 3 from 29. August 2011

EAC extraction logfile from 29. August 2014, 23:46

Various / Рок-Екзистенція 2000 [CD1]

Used drive : MATSHITADVD-RAM UJ8C1 Adapter: 1 ID: 0

Read mode : Secure
Utilize accurate stream : Yes
Defeat audio cache : Yes
Make use of C2 pointers : No

Read offset correction : 6
Overread into Lead-In and Lead-Out : No
Fill up missing offset samples with silence : Yes
Delete leading and trailing silent blocks : No
Null samples used in CRC calculations : Yes
Used interface : Native Win32 interface for Win NT & 2000

Used output format : Internal WAV Routines
Sample format : 44.100 Hz; 16 Bit; Stereo

TOC of the extracted CD

Track | Start | Length | Start sector | End sector
---------------------------------------------------------
1 | 0:00.00 | 0:09.13 | 0 | 687
2 | 0:09.13 | 3:52.25 | 688 | 18112
3 | 4:01.38 | 5:47.42 | 18113 | 44179
4 | 9:49.05 | 2:58.32 | 44180 | 57561
5 | 12:47.37 | 2:32.37 | 57562 | 68998
6 | 15:19.74 | 4:09.51 | 68999 | 87724
7 | 19:29.50 | 4:16.47 | 87725 | 106971
8 | 23:46.22 | 4:47.09 | 106972 | 128505
9 | 28:33.31 | 3:35.57 | 128506 | 144687
10 | 32:09.13 | 4:53.14 | 144688 | 166676
11 | 37:02.27 | 4:10.48 | 166677 | 185474
12 | 41:13.00 | 6:37.46 | 185475 | 215295
13 | 47:50.46 | 2:28.41 | 215296 | 226436

Range status and errors

Selected range

Filename C:\Music\Рок-Екзистенція 2000\Various - Рок-Екзистенція 2000 [CD1].wav

Peak level 99.9 %
Extraction speed 4.5 X
Range quality 100.0 %
Copy CRC 8D1F6F66
Copy OK

No errors occurred

AccurateRip summary

Track 1 not present in database
Track 2 not present in database
Track 3 not present in database
Track 4 not present in database
Track 5 not present in database
Track 6 not present in database
Track 7 not present in database
Track 8 not present in database
Track 9 not present in database
Track 10 not present in database
Track 11 not present in database
Track 12 not present in database
Track 13 not present in database

None of the tracks are present in the AccurateRip database

End of status report
Audiochecker

fooCDtect - foobar2000 + auCDtect, baralgin.

auCDtect: CD records authenticity detector, version 0.8.2
Copyright (c) 2004 Oleg Berngardt. All rights reserved.
Copyright (c) 2004 Alexander Djourik. All rights reserved.

mode: 0

===========================================
Track: 01. Рок Екзистенція 2000
Quality: CDDA 100%
===========================================
Track: 02. Сніг
Quality: CDDA 100%
===========================================
Track: 03. Лялька
Quality: CDDA 100%
===========================================
Track: 04. Я така маленька
Quality: CDDA 100%
===========================================
Track: 05. Зоряні вовки
Quality: CDDA 100%
===========================================
Track: 06. Країна весни
Quality: CDDA 100%
===========================================
Track: 07. Два крилечки
Quality: MPEG 100%
===========================================
Track: 08. Перевертень
Quality: CDDA 100%
===========================================
Track: 09. Колискова
Quality: MPEG 95%
===========================================
Track: 10. Рибачка
Quality: CDDA 100%
===========================================
Track: 11. Коридор
Quality: CDDA 100%
===========================================
Track: 12. Сплять янголи
Quality: CDDA 100%
===========================================
Track: 13. Джерела
Quality: CDDA 100%
===========================================
CD2

Пісні:
    01. Рок Екзистенція 2000
    02. Друга ріка – Я є
    03. DAT – Dreams
    04. Вій – Змія
    05. Армада – Кока-лока
    06. Лос Динамос – Комбайнерос
    07. The Вйо – Родіна Мать
    08. Мандри – Перекотиполе
    09. Леся Герасимчук та Королівські Зайці – Мої очі
    10. Кому Вниз – Неба зорі
    11. Мотор’ролла – Зранку йшов дощ
    12. Актус – Ворота
    13. Мертвий Півень – Холодно

Тривалість: 00:49:04
Мова: українська
Аудіо-кодек: APE
Бітрейт: 934 кб/с
EAC Log

Exact Audio Copy V1.0 beta 3 from 29. August 2011

EAC extraction logfile from 30. August 2014, 0:06

Various / Рок-Екзистенція 2000 [CD2]

Used drive : MATSHITADVD-RAM UJ8C1 Adapter: 1 ID: 0

Read mode : Secure
Utilize accurate stream : Yes
Defeat audio cache : Yes
Make use of C2 pointers : No

Read offset correction : 6
Overread into Lead-In and Lead-Out : No
Fill up missing offset samples with silence : Yes
Delete leading and trailing silent blocks : No
Null samples used in CRC calculations : Yes
Used interface : Native Win32 interface for Win NT & 2000

Used output format : Internal WAV Routines
Sample format : 44.100 Hz; 16 Bit; Stereo

TOC of the extracted CD

Track | Start | Length | Start sector | End sector
---------------------------------------------------------
1 | 0:00.00 | 0:09.13 | 0 | 687
2 | 0:09.13 | 3:40.65 | 688 | 17252
3 | 3:50.03 | 4:45.00 | 17253 | 38627
4 | 8:35.03 | 3:37.68 | 38628 | 54970
5 | 12:12.71 | 5:57.61 | 54971 | 81806
6 | 18:10.57 | 4:18.20 | 81807 | 101176
7 | 22:29.02 | 3:05.20 | 101177 | 115071
8 | 25:34.22 | 5:30.70 | 115072 | 139891
9 | 31:05.17 | 3:21.55 | 139892 | 155021
10 | 34:26.72 | 3:41.46 | 155022 | 171642
11 | 38:08.43 | 3:45.26 | 171643 | 188543
12 | 41:53.69 | 2:36.25 | 188544 | 200268
13 | 44:30.19 | 4:33.52 | 200269 | 220795

Range status and errors

Selected range

Filename C:\Music\Рок-Екзистенція 2000\Various - Рок-Екзистенція 2000 [CD2].wav

Peak level 99.9 %
Extraction speed 4.2 X
Range quality 100.0 %
Copy CRC 81F463A2
Copy OK

No errors occurred

AccurateRip summary

Track 1 not present in database
Track 2 not present in database
Track 3 not present in database
Track 4 not present in database
Track 5 not present in database
Track 6 not present in database
Track 7 not present in database
Track 8 not present in database
Track 9 not present in database
Track 10 not present in database
Track 11 not present in database
Track 12 not present in database
Track 13 not present in database

None of the tracks are present in the AccurateRip database

End of status report
Audiochecker

fooCDtect - foobar2000 + auCDtect, baralgin.

auCDtect: CD records authenticity detector, version 0.8.2
Copyright (c) 2004 Oleg Berngardt. All rights reserved.
Copyright (c) 2004 Alexander Djourik. All rights reserved.

mode: 0

===========================================
Track: 01. Рок Екзистенція 2000
Quality: CDDA 100%
===========================================
Track: 02. Я є
Quality: CDDA 100%
===========================================
Track: 03. Dreams
Quality: CDDA 100%
===========================================
Track: 04. Змія
Quality: CDDA 100%
===========================================
Track: 05. Кока-лока
Quality: CDDA 99%
===========================================
Track: 06. Комбайнерос
Quality: CDDA 58%
===========================================
Track: 07. Родіна Мать
Quality: CDDA 100%
===========================================
Track: 08. Перекотиполе
Quality: CDDA 100%
===========================================
Track: 09. Мої очі
Quality: CDDA 100%
===========================================
Track: 10. Неба зорі
Quality: CDDA 100%
===========================================
Track: 11. Зранку йшов дощ
Quality: MPEG 95%
===========================================
Track: 12. Ворота
Quality: CDDA 99%
===========================================
Track: 13. Холодно
Quality: MPEG 95%
===========================================
Тривалість: 01:39:23
Мова: українська
Аудіо-кодек: APE
Бітрейт: 881-934 кб/с
Джерело: компакт-диск

Додаткова інформація:
Шикарна збірка. :-) Свого часу ця збірка стала для мене відкриттям, якщо не одкровенням. Фактично, завдяки їй я дізнався про всі ці групи. Звісно, окрім таких грандів, як Плач Єремії чи Мертвий Півень. Але, як це не дивно, тоді я навіть не чув про Кому Вниз.
І схоже, цей альбом зараз є дикою рідкістю...




Якщо Ви справді бажаєте підтримати українське - після прослуховування, якщо музика вам сподобалась, придбайте ліцензійний диск. Підтримаймо вітчизняних виконавців!


Срібний реліз (на рейтинг впливає 50% завантаженого)
 Трекер:    Зареєстрований   

Завантажити / скачати українську музику



відео для новачків



 Зареєстрований:   2016-06-27 23:14
 Розмір:   705 MB 
 Оцінка музики:   10/10 (Голосів: 5)
   
ssTAss 
Модератор музики


З нами з: 05.07.08
Востаннє: 06.12.16
Повідомлень: 10946

2014-08-30 00:07  
civ написано:
VA - Рок-Екзистенція 2000 (2000) [APE] | Rock

може краще назву дати як і в інших, як гадаєте?
VA - Фестиваль "Рок-Екзистенція 2000" (2CD) (2000) [APE] | Rock

civ 
VIP


З нами з: 16.02.11
Востаннє: 06.12.16
Повідомлень: 429

2014-08-30 00:09  
можна
civ 
VIP


З нами з: 16.02.11
Востаннє: 06.12.16
Повідомлень: 429

2016-06-27 23:15  
Додав обкладинки.
Форкуш 
VIP


З нами з: 03.02.10
Востаннє: 06.12.16
Повідомлень: 1536

2016-06-28 07:08  
мп3 будь ласка)
civ 
VIP


З нами з: 16.02.11
Востаннє: 06.12.16
Повідомлень: 429

2016-06-28 07:15  
Це, будь ласка, не до мене. Якщо є бажаючий зробити мп3-реліз - прошу.
civ 
VIP


З нами з: 16.02.11
Востаннє: 06.12.16
Повідомлень: 429

2016-08-05 21:55  
Реліз перевірять? Чому затримка?
Ваш часовий пояс: GMT + 2 Години

Нова тема   Відповісти