Завантажити та скачати торренти українською


Гра Престолів (Сезон 1-4) / Game of Thrones (Season 1-4) (2011-2014) AVC

Нові коментарі

Нова тема   Відповісти
Автор Повідомлення
NeetScrool 
Відео Гуртом - фільмокрай
Відео Гуртом - фільмокрай


З нами з: 10.01.13
Востаннє: 05.12.16
Повідомлень: 2214

2014-08-26 18:55  
Гра Престолів (Сезон 1-4) / Game of Thrones (Season 1-4) (2011-2014) AVC

Гра Престолів (Сезон 1-4) / Game of Thrones (Season 1-4) (2011-2014) AVC

«Перемога чи смерть»


Жанр: пригодницький, драма, фентезі
Країна: США


Кінокомпанія / телеканал: Home Box Office, Television 360, Grok! Studio, Generator Entertainment, Bighead Littlehead, Embassy Films
Режисер: Девід Беніофф (David Benioff), Ден Вайс (D.B. Weiss)
Актори/ролі озвучують: Актори: Шон Бін (Sean Bean), Гаррі Ллойд (Harry Lloyd), Марк Едді (Mark Addy), Альфі Аллен (Alfie Allen), Ісаак Гемстед-Райт (Isaac Hempstead Wright), Джон Бредлі (John Bradley), Рон Донакі (Ron Donachie)

Сюжет:
Сюжет серіалу заснований на фентезійній сазі Джорджа Мартіна «Пісня льоду та полум'я»; кожному сезону відповідає одна книга гепталогії, з яких наразі написано п’ять книжок.

Події книг відбуваються на фоні політичних інтриг і, пізніше, громадянської війни в боротьбі за владу над вигаданим континентом Вестерос. Роберт Баратеон, король Семи Королівств, просить свого старого товариша Еддарда Старка стати його Рукою — головним радником. Еддард, підозрюючи, що його попередник на цій посаді був убитий, погоджується, щоб розслідувати обставини загибелі та захистити короля. У той же час родичі королеви, Ланністери, намагаються взяти Вестерос під свій повний контроль. Паралельно за морем останні нащадки королівської сім'ї Таргарієнів шукають союзників, здатних повернути їм трон Семи Королівств. Конфлікт між цими та іншими сім'ями, в тому числі Грейджоями, Таллі, Арренами та Тіреллами, призводить до війни. Між тим, на півночі, прокидається давнє зло. Серед війни і політичної плутанини, невелике братство, Нічна Варта, залишаються єдиними, хто стоїть між світом людей і мороком півночі.
Гра Престолів (Сезон 1) / Game of Thrones (Season 1) (2011) AVC
Тривалість: 1 серія: ~50 хв (цілком серій: 10)
Перелік серій

Сезон 1
01: Зима близько / Winter Is Coming
02: Королівський Тракт / The Kingsroad
03: Лорд Сноу / Lord Snow
04: Каліки, бастарди і зламані речі / Cripples, Bastards, and Broken Things
05: Вовк та Лев / The Wolf and the Lion
06: Золота корона / A Golden Crown
07: Перемагай або помри / You Win or You Die
08: Гострий кінець / The Pointy End
09: Бейлор / Baelor
10: Полум'я і кров / Fire and Blood
Якість:
Відео:
кодек:
розмір кадру: 976 х 552
бітрейт: 2 345 кб/с

Аудіо:
мова: українська
переклад: професійний дубльований | ТЕТ
кодек: 2.0
бітрейт: ~196 кб/с

Джерело озвучення:
Скріншоти












MediaInfo

General
Complete name : E:\Довготривлі роздачі\Game of Thrones [AVC]\Season 1\Game_of_Thrones_S01E07.mp4
Format : MPEG-4
Format profile : Base Media
Codec ID : isom
File size : 1.02 GiB
Duration : 57mn 47s
Overall bit rate mode : Variable
Overall bit rate : 2 525 Kbps
Encoded date : UTC 2014-08-16 18:54:21
Tagged date : UTC 2014-08-16 18:54:21

Video
ID : 1
Format : AVC
Format/Info : Advanced Video Codec
Format profile : [email protected]
Format settings, CABAC : Yes
Format settings, ReFrames : 6 frames
Codec ID : avc1
Codec ID/Info : Advanced Video Coding
Duration : 57mn 47s
Bit rate : 2 325 Kbps
Maximum bit rate : 10.1 Mbps
Width : 976 pixels
Height : 552 pixels
Display aspect ratio : 16:9
Frame rate mode : Constant
Frame rate : 23.976 fps
Color space : YUV
Chroma subsampling : 4:2:0
Bit depth : 8 bits
Scan type : Progressive
Bits/(Pixel*Frame) : 0.180
Stream size : 961 MiB (92%)
Writing library : core 130 r2273 b3065e6
Encoding settings : cabac=1 / ref=6 / deblock=1:-2:-2 / analyse=0x3:0x113 / me=umh / subme=9 / psy=1 / psy_rd=1.00:0.10 / mixed_ref=1 / me_range=20 / chroma_me=1 / trellis=1 / 8x8dct=1 / cqm=0 / deadzone=21,11 / fast_pskip=1 / chroma_qp_offset=-3 / threads=6 / lookahead_threads=1 / sliced_threads=0 / nr=0 / decimate=1 / interlaced=0 / bluray_compat=0 / constrained_intra=0 / bframes=8 / b_pyramid=2 / b_adapt=1 / b_bias=0 / direct=1 / weightb=1 / open_gop=0 / weightp=1 / keyint=230 / keyint_min=23 / scenecut=40 / intra_refresh=0 / rc_lookahead=30 / rc=2pass / mbtree=1 / bitrate=2325 / ratetol=1.0 / qcomp=0.37 / qpmin=0 / qpmax=60 / qpstep=7 / cplxblur=20.0 / qblur=0.5 / ip_ratio=1.40 / aq=1:1.00 / zones=0,165,b=0.13/167,2708,b=0.50/81604,83128,b=0.15
Encoded date : UTC 2014-08-16 18:54:21
Tagged date : UTC 2014-08-16 18:55:06

Audio
ID : 2
Format :
Format/Info : Advanced Audio Codec
Format profile : LC
Codec ID : 40
Duration : 57mn 47s
Bit rate mode : Variable
Bit rate : 196 Kbps
Maximum bit rate : 201 Kbps
Channel count : 2 channels
Channel positions : Front: L R
Sampling rate : 48.0 KHz
Compression mode : Lossy
Stream size : 81.0 MiB (8%)
Encoded date : UTC 2014-08-16 18:55:05
Tagged date : UTC 2014-08-16 18:55:06
log

Encoding video to: E:\Temp\0177.264
2325kbps 976x552 23.976fps (82336 frames)

...first pass...

avs4x264.exe: -L x264_64.exe --pass 1 --bitrate 2325 --preset fast --profile high --level 4.1 --ref 6 --deblock -2:-2 --merange 20 --bframes 8 --qpmax 60 --qpstep 7 --psy-rd 1.00:0.10 --qcomp 0.37 --subme 9 --me umh --min-keyint 23 --keyint 230 --zones 0,165,b=0.13 --sar 1:1 --stats "E:\Temp\0177.log" --output NUL "E:\Temp\0177.avs"

raw [info]: 976x552p 1:1 @ 24000/1001 fps (cfr)
[info]: using SAR=1/1
[info]: using cpu capabilities: MMX2 SSE2Fast SSSE3 SSE4.2 AVX
[info]: profile Main, level 4.1

[info]: frame I:997 Avg QP:13.66 size:103415
[info]: frame P:28563 Avg QP:17.72 size: 26024
[info]: frame B:52776 Avg QP:20.23 size: 2683
[info]: consecutive B-frames: 7.4% 25.3% 13.3% 17.7% 31.5% 2.9% 0.0% 0.1% 1.8%
[info]: mb I I16..4: 25.0% 0.0% 75.0%
[info]: mb P I16..4: 16.0% 0.0% 0.0% P16..4: 70.0% 0.0% 0.0% 0.0% 0.0% skip:14.0%
[info]: mb B I16..4: 1.8% 0.0% 0.0% B16..8: 18.5% 0.0% 0.0% direct: 9.3% skip:70.4% L0:32.3% L1:41.7% BI:26.1%
[info]: final ratefactor: 15.82
[info]: coded y,uvDC,uvAC intra: 49.9% 51.0% 23.6% inter: 19.9% 13.4% 2.1%
[info]: i16 v,h,dc,p: 42% 19% 27% 12%
[info]: i4 v,h,dc,ddl,ddr,vr,hd,vl,hu: 21% 14% 14% 8% 8% 9% 8% 9% 8%
[info]: i8c dc,h,v,p: 59% 15% 22% 4%
[info]: Weighted P-Frames: Y:5.1% UV:1.7%
[info]: kb/s:2301.66

[total]: encoded 82336 frames, 39.26 fps, 2301.66 kb/s

...last pass...

avs4x264.exe: -L x264_64.exe --pass 2 --bitrate 2325 --preset fast --profile high --level 4.1 --ref 6 --deblock -2:-2 --merange 20 --bframes 8 --qpmax 60 --qpstep 7 --psy-rd 1.00:0.10 --qcomp 0.37 --subme 9 --me umh --min-keyint 23 --keyint 230 --zones 0,165,b=0.13 --sar 1:1 --stats "E:\Temp\0177.log" --output "E:\Temp\0177.264" "E:\Temp\0177.avs"

raw [info]: 976x552p 1:1 @ 24000/1001 fps (cfr)
[info]: using SAR=1/1
[info]: using cpu capabilities: MMX2 SSE2Fast SSSE3 SSE4.2 AVX
[info]: profile High, level 4.1

[info]: frame I:997 Avg QP:14.37 size:109183
[info]: frame P:28563 Avg QP:18.05 size: 25511
[info]: frame B:52776 Avg QP:21.32 size: 3055
[info]: consecutive B-frames: 7.4% 25.3% 13.3% 17.7% 31.5% 2.9% 0.0% 0.1% 1.8%
[info]: mb I I16..4: 14.3% 59.4% 26.3%
[info]: mb P I16..4: 0.8% 4.3% 1.2% P16..4: 40.1% 24.4% 18.2% 0.0% 0.0% skip:11.0%
[info]: mb B I16..4: 0.0% 0.2% 0.1% B16..8: 38.1% 4.1% 1.1% direct: 1.6% skip:54.7% L0:43.4% L1:48.2% BI: 8.4%
[info]: 8x8 transform intra:65.2% inter:67.0%
[info]: coded y,uvDC,uvAC intra: 83.7% 80.1% 52.2% inter: 22.3% 19.7% 4.4%
[info]: i16 v,h,dc,p: 37% 11% 13% 39%
[info]: i8 v,h,dc,ddl,ddr,vr,hd,vl,hu: 15% 6% 4% 9% 14% 15% 12% 13% 11%
[info]: i4 v,h,dc,ddl,ddr,vr,hd,vl,hu: 12% 6% 4% 10% 15% 15% 13% 13% 12%
[info]: i8c dc,h,v,p: 45% 19% 21% 15%
[info]: Weighted P-Frames: Y:5.1% UV:1.7%
[info]: ref P L0: 63.1% 17.5% 9.3% 5.1% 4.1% 0.9%
[info]: ref B L0: 76.3% 13.8% 6.7% 2.5% 0.7%
[info]: ref B L1: 91.6% 8.4%
[info]: kb/s:2326.61

[total]: encoded 82336 frames, 11.26 fps, 2326.61 kb/s
Гра Престолів (Сезон 2) / Game of Thrones (Season 2) (2012) AVC 2xUkr
Тривалість: 1 серія: ~50 хв (цілком серій: 10)
Перелік серій

01: Північ пам'ятає / The North Remembers
02: Землі Ночі / The Night Lands
03: Що мертве - не помре / What Is Dead May Never Die
04: Сад кісток / Garden of Bones
05: Привид Харренхолу / The Ghost of Harrenhal
06: Старі боги та нові / The Old Gods and the New
07: Людина без честі / A Man Without Honor
08: Принц Вінтерфеллу / The Prince of Winterfell
09: Чорноводна / Blackwater
10: Валар Моргуліс / Valar Morghulis
Якість:
Відео:
кодек:
розмір кадру: 976 х 552
бітрейт: 2 545 кб/с

Аудіо #1:
мова: українська
переклад: багатоголосий закадровий | Омікрон
кодек: 2.0
бітрейт: ~196 кб/с
Аудіо #2:
мова: українська
переклад: професійний дубльований | ТЕТ
кодек: 2.0
бітрейт: ~196 кб/с

Джерело озвучення:
Скріншоти












MediaInfo

General
Complete name : E:\Довготривлі роздачі\Game of Thrones [AVC]\Season 2\Game_of_Thrones_S02E02.mp4
Format : MPEG-4
Format profile : Base Media / Version 2
Codec ID : mp42
File size : 1.15 GiB
Duration : 53mn 29s
Overall bit rate mode : Variable
Overall bit rate : 3 066 Kbps
Encoded date : UTC 2015-02-02 18:44:35
Tagged date : UTC 2015-02-02 18:44:35
Writing application : Yamb 2.1.0.0 [http://yamb.unite-video.com]

Video
ID : 1
Format : AVC
Format/Info : Advanced Video Codec
Format profile : [email protected]
Format settings, CABAC : Yes
Format settings, ReFrames : 6 frames
Codec ID : avc1
Codec ID/Info : Advanced Video Coding
Duration : 53mn 29s
Bit rate : 2 525 Kbps
Maximum bit rate : 11.1 Mbps
Width : 976 pixels
Height : 552 pixels
Display aspect ratio : 16:9
Frame rate mode : Constant
Frame rate : 23.976 fps
Color space : YUV
Chroma subsampling : 4:2:0
Bit depth : 8 bits
Scan type : Progressive
Bits/(Pixel*Frame) : 0.195
Stream size : 966 MiB (82%)
Title : Sens
Writing library : core 130 r2273 b3065e6
Encoding settings : cabac=1 / ref=6 / deblock=1:-2:-2 / analyse=0x3:0x113 / me=umh / subme=9 / psy=1 / psy_rd=1.00:0.00 / mixed_ref=1 / me_range=20 / chroma_me=1 / trellis=1 / 8x8dct=1 / cqm=0 / deadzone=21,11 / fast_pskip=1 / chroma_qp_offset=-2 / threads=6 / lookahead_threads=1 / sliced_threads=0 / nr=0 / decimate=1 / interlaced=0 / bluray_compat=0 / constrained_intra=0 / bframes=8 / b_pyramid=2 / b_adapt=2 / b_bias=0 / direct=3 / weightb=1 / open_gop=0 / weightp=2 / keyint=230 / keyint_min=23 / scenecut=40 / intra_refresh=0 / rc_lookahead=30 / rc=2pass / mbtree=1 / bitrate=2525 / ratetol=1.0 / qcomp=0.37 / qpmin=0 / qpmax=60 / qpstep=7 / cplxblur=20.0 / qblur=0.5 / ip_ratio=1.40 / aq=1:1.00 / zones=0,165,b=0.13/167,2708,b=0.50/76251,76956,b=0.15
Encoded date : UTC 2015-02-02 08:00:43
Tagged date : UTC 2015-02-02 18:45:34

Audio #1
ID : 2
Format :
Format/Info : Advanced Audio Codec
Format profile : LC
Codec ID : 40
Duration : 53mn 28s
Bit rate mode : Variable
Bit rate : 353 Kbps
Maximum bit rate : 382 Kbps
Channel count : 2 channels
Original Channel count : 6 channels
Channel positions : Front: L C R, Side: L R, LFE
Sampling rate : 48.0 KHz
Compression mode : Lossy
Stream size : 132 MiB (11%)
Title : MVO | Omikron
Language : Ukrainian
Encoded date : UTC 2015-02-02 18:45:23
Tagged date : UTC 2015-02-02 18:45:34

Audio #2
ID : 3
Format :
Format/Info : Advanced Audio Codec
Format profile : LC
Codec ID : 40
Duration : 53mn 28s
Bit rate mode : Variable
Bit rate : 192 Kbps
Maximum bit rate : 215 Kbps
Channel count : 2 channels
Channel positions : Front: L R
Sampling rate : 48.0 KHz
Compression mode : Lossy
Stream size : 72.6 MiB (6%)
Title : DUB | TET
Language : Ukrainian
Encoded date : UTC 2015-02-02 18:45:28
Tagged date : UTC 2015-02-02 18:45:34
log

Забув зберегти (=
Гра Престолів (Сезон 3) / Game of Thrones (Season 3) (2013) AVC
Тривалість: 1 серія: ~50 хв (цілком серій: 10)
Перелік серій

01: Валар Дохаеріс / Valar Dohaeris
02: Чорні крила, чорні вісті / Dark Wings, Dark Words
03: Дорога спокути / Walk of Punishment
04: Тепер його варта закінчилась / And Now His Watch Is Ended
05: Поцілована вогнем / Kissed by Fire
06: Сходження / The Climb
07: Ведмідь та красна діва / The Bear and the Maiden Fair
08: Другі сини / Second Sons
09: Дощі Кастамер / The Rains of Castamere
10: Міса / Mhysa
Якість:
Відео:
кодек:
розмір кадру: 976 х 552
бітрейт: 2 545 кб/с

Аудіо #1:
мова: українська
переклад: багатоголосий закадровий | Омікрон
кодек: 2.0
бітрейт: ~196 кб/с

Джерело озвучення:
UaTeam
Скріншоти









MediaInfo


General
Complete name : G:\Torrents\Довготривлі роздачі\Game of Thrones [AVC]\Season 3\Game_of_Thrones_S03E01.mp4
Format : MPEG-4
Format profile : Base Media
Codec ID : isom (isom/avc1/iso6)
File size : 985 MiB
Duration : 54 min 31 s
Overall bit rate mode : Variable
Overall bit rate : 2 525 kb/s
Encoded date : UTC 2016-11-24 06:54:22
Tagged date : UTC 2016-11-24 06:54:22

Video
ID : 1
Format : AVC
Format/Info : Advanced Video Codec
Format profile : [email protected]
Format settings, CABAC : Yes
Format settings, ReFrames : 6 frames
Codec ID : avc1
Codec ID/Info : Advanced Video Coding
Duration : 54 min 31 s
Bit rate : 2 325 kb/s
Maximum bit rate : 38.8 Mb/s
Width : 976 pixels
Height : 552 pixels
Display aspect ratio : 16:9
Frame rate mode : Constant
Frame rate : 23.976 (24000/1001) FPS
Color space : YUV
Chroma subsampling : 4:2:0
Bit depth : 8 bits
Scan type : Progressive
Bits/(Pixel*Frame) : 0.180
Stream size : 910 MiB (92%)
Title : [email protected]-DEV-rev248-g39d5978-master
Writing library : core 146 r2538 121396c
Encoding settings : cabac=1 / ref=6 / deblock=1:-2:-2 / analyse=0x3:0x113 / me=umh / subme=9 / psy=1 / psy_rd=1.00:0.00 / mixed_ref=1 / me_range=40 / chroma_me=1 / trellis=1 / 8x8dct=1 / cqm=0 / deadzone=21,11 / fast_pskip=1 / chroma_qp_offset=-2 / threads=24 / lookahead_threads=4 / sliced_threads=0 / nr=0 / decimate=1 / interlaced=0 / bluray_compat=0 / constrained_intra=0 / bframes=8 / b_pyramid=2 / b_adapt=2 / b_bias=0 / direct=3 / weightb=1 / open_gop=0 / weightp=2 / keyint=230 / keyint_min=23 / scenecut=40 / intra_refresh=0 / rc_lookahead=120 / rc=2pass / mbtree=1 / bitrate=2325 / ratetol=1.0 / qcomp=0.37 / qpmin=0 / qpmax=60 / qpstep=7 / cplxblur=20.0 / qblur=0.5 / ip_ratio=1.40 / aq=1:1.00
Encoded date : UTC 2016-11-24 06:54:22
Tagged date : UTC 2016-11-24 06:54:32

Audio
ID : 2
Format :
Format/Info : Advanced Audio Codec
Format profile : LC
Codec ID : 40
Duration : 54 min 31 s
Bit rate mode : Variable
Bit rate : 192 kb/s
Maximum bit rate : 210 kb/s
Channel(s) : 2 channels
Channel positions : Front: L R
Sampling rate : 48.0 kHz
Frame rate : 46.875 FPS (1024 spf)
Compression mode : Lossy
Stream size : 73.9 MiB (7%)
Encoded date : UTC 2016-11-24 06:13:58
Tagged date : UTC 2016-11-24 06:54:32
log

Забув зберегти (=
Гра Престолів (Сезон 4) / Game of Thrones (Season 4) (2014) AVC
Тривалість: 1 серія: ~50 хв (цілком серій: 10)
Перелік серій

01: Два мечі / Two Swords
02: Лев і Троянда / The Lion and the Rose
03: Розбиваючи кайдани / Breaker of Chains
04: Вірний клятві / Oathkeeper
05: Перший свого імені / First of His Name
06: Закони Божі та людські / The Laws of Gods and Men
07: Пересмішник / Mockingbird
08: Гора та змій / The Mountain and the Viper
09: Вартові на стіні / The Watchers on the Wal
10: Діти / The Children
Якість:
Відео:
кодек:
розмір кадру: 976 х 552
бітрейт: 2 545 кб/с

Аудіо #1:
мова: українська
переклад: багатоголосий закадровий | Омікрон
кодек: 2.0
бітрейт: ~196 кб/с

Джерело озвучення:
UaTeam
Скріншоти









MediaInfo


General
Complete name : G:\Torrents\Довготривлі роздачі\Game of Thrones [AVC]\Season 4\Game_of_Thrones_S04E05.mp4
Format : MPEG-4
Format profile : Base Media
Codec ID : isom (isom/avc1/iso6)
File size : 961 MiB
Duration : 53 min 12 s
Overall bit rate mode : Variable
Overall bit rate : 2 526 kb/s
Encoded date : UTC 2016-11-29 23:43:44
Tagged date : UTC 2016-11-29 23:43:44

Video
ID : 1
Format : AVC
Format/Info : Advanced Video Codec
Format profile : [email protected]
Format settings, CABAC : Yes
Format settings, ReFrames : 6 frames
Codec ID : avc1
Codec ID/Info : Advanced Video Coding
Duration : 53 min 11 s
Bit rate : 2 325 kb/s
Maximum bit rate : 40.4 Mb/s
Width : 976 pixels
Height : 552 pixels
Display aspect ratio : 16:9
Frame rate mode : Constant
Frame rate : 23.976 (24000/1001) FPS
Color space : YUV
Chroma subsampling : 4:2:0
Bit depth : 8 bits
Scan type : Progressive
Bits/(Pixel*Frame) : 0.180
Stream size : 888 MiB (92%)
Title : [email protected]-DEV-rev248-g39d5978-master
Writing library : core 146 r2538 121396c
Encoding settings : cabac=1 / ref=6 / deblock=1:-2:-2 / analyse=0x3:0x113 / me=umh / subme=9 / psy=1 / psy_rd=1.00:0.00 / mixed_ref=1 / me_range=40 / chroma_me=1 / trellis=1 / 8x8dct=1 / cqm=0 / deadzone=21,11 / fast_pskip=1 / chroma_qp_offset=-2 / threads=24 / lookahead_threads=4 / sliced_threads=0 / nr=0 / decimate=1 / interlaced=0 / bluray_compat=0 / constrained_intra=0 / bframes=8 / b_pyramid=2 / b_adapt=2 / b_bias=0 / direct=3 / weightb=1 / open_gop=0 / weightp=2 / keyint=230 / keyint_min=23 / scenecut=40 / intra_refresh=0 / rc_lookahead=120 / rc=2pass / mbtree=1 / bitrate=2325 / ratetol=1.0 / qcomp=0.37 / qpmin=0 / qpmax=60 / qpstep=7 / cplxblur=20.0 / qblur=0.5 / ip_ratio=1.40 / aq=1:1.00
Encoded date : UTC 2016-11-29 23:43:44
Tagged date : UTC 2016-11-29 23:43:54

Audio
ID : 2
Format :
Format/Info : Advanced Audio Codec
Format profile : LC
Codec ID : 40
Duration : 53 min 12 s
Bit rate mode : Variable
Bit rate : 192 kb/s
Maximum bit rate : 216 kb/s
Channel(s) : 2 channels
Channel positions : Front: L R
Sampling rate : 48.0 kHz
Frame rate : 46.875 FPS (1024 spf)
Compression mode : Lossy
Stream size : 72.1 MiB (8%)
Encoded date : UTC 2016-11-29 23:04:01
Tagged date : UTC 2016-11-29 23:43:54
log

Забув зберегти (=
Джерело:
Особиста оцінка: 8 - мені сподобалося


Золотий реліз (завантажене не впливає на рейтинг)
 Трекер:    Зареєстрований   

Завантажити / скачати серіал українською



відео для новачків



 Зареєстрований:   2016-12-01 18:19
 Розмір:   41.21 GB 
 Оцінка серіалу:   8.2/10 (Голосів: 67)
   
NeetScrool 
Відео Гуртом - фільмокрай
Відео Гуртом - фільмокрай


З нами з: 10.01.13
Востаннє: 05.12.16
Повідомлень: 2214

2015-01-22 21:14  
Пилити 2-й сезон у такій якості?
Tarasyk 
Відео Гуртом - фільмокрай
Відео Гуртом - фільмокрай


З нами з: 26.08.09
Востаннє: 28.11.16
Повідомлень: 5972

2015-01-24 22:36  
NeetScrool, так, було б чудово!

Додано через 2 хвилини 12 секунд:

Тим більше, що немає релізу одразу з 2 озвучками, а твій варіант був би чудовий, AVC + 2 доріжки - ідеально)

Додано через 3 хвилини 8 секунд:

О, і щоб сіди трималися до купи, зроби не окремий реліз, а онови цей, згода? Щоб всі сезони були в одному місці

NeetScrool 
Відео Гуртом - фільмокрай
Відео Гуртом - фільмокрай


З нами з: 10.01.13
Востаннє: 05.12.16
Повідомлень: 2214

2015-01-30 18:24  
Tarasyk
Згода!
Звук від Омікрону стискати у 2.0 чи залишити 5.1 ?

don pedro 
Попереджень: 1
Попереджень: 1 


З нами з: 29.06.11
Востаннє: 05.12.16
Повідомлень: 8737

2015-01-31 11:04  
Трейлер п'ятого сезону:

Tarasyk 
Відео Гуртом - фільмокрай
Відео Гуртом - фільмокрай


З нами з: 26.08.09
Востаннє: 28.11.16
Повідомлень: 5972

2015-02-02 10:14  
NeetScrool, дякую! Гадаю варто лишити 5.1, на розмірі серії ~ 1 ГБ різниця буде не дуже значна.
don pedro 
Попереджень: 1
Попереджень: 1 


З нами з: 29.06.11
Востаннє: 05.12.16
Повідомлень: 8737

2015-02-03 02:39  
Мілла Йовович зніметься у екранізації ранніх фентезі оповідань 1982 р. Джорджа Мартіна у ролі відьми.

Більше тут:

http://www.imdb.com/news/ni58246432?ref_=hm_nw_tp1

NeetScrool 
Відео Гуртом - фільмокрай
Відео Гуртом - фільмокрай


З нами з: 10.01.13
Востаннє: 05.12.16
Повідомлень: 2214

2015-02-03 09:13  
don pedro
Хоч голу Міллу побачимо.

don pedro 
Попереджень: 1
Попереджень: 1 


З нами з: 29.06.11
Востаннє: 05.12.16
Повідомлень: 8737

2015-02-03 15:29  
NeetScrool
Інтернет вам на допомогу. Перша "Оселя зла" зокрема.

NeetScrool 
Відео Гуртом - фільмокрай
Відео Гуртом - фільмокрай


З нами з: 10.01.13
Востаннє: 05.12.16
Повідомлень: 2214

2015-02-11 21:36  
+ 2-й сезон.
_skilled_ 
Новенький


З нами з: 02.05.15
Востаннє: 20.11.15
Повідомлень: 6

2015-06-16 22:16  
Дуже дякую!
Планується продовження в тому ж форматі?
Неймовірно на це сподиваюся..

NeetScrool 
Відео Гуртом - фільмокрай
Відео Гуртом - фільмокрай


З нами з: 10.01.13
Востаннє: 05.12.16
Повідомлень: 2214

2015-07-11 19:03  
_skilled_ написано:
42.59 GB

Планується.

don pedro 
Попереджень: 1
Попереджень: 1 


З нами з: 29.06.11
Востаннє: 05.12.16
Повідомлень: 8737

2015-12-30 23:02  
По "Новому" будуть всі сезони з 12 січня наступного року, але трейлер показують на "апщєпанятнам". Сподіваюсь, що просто ще не встигли перекласти ( з "Новим" таке вже бувало).
dr0 
Новенький


З нами з: 13.04.16
Востаннє: 05.12.16
Повідомлень: 4

2016-10-13 00:30  
Скажіть, будь ласка, чи існує в природі закадрове озвучування першого сезону цього серіалу?
Dark Invader 
Модератор відео


З нами з: 06.01.11
Востаннє: 05.12.16
Повідомлень: 1863

2016-10-13 11:13  
dr0
Ні.

NeetScrool 
Відео Гуртом - фільмокрай
Відео Гуртом - фільмокрай


З нами з: 10.01.13
Востаннє: 05.12.16
Повідомлень: 2214

2016-12-01 18:19  
3 та 4 сезони.
[Captain] 
Попереджень: 1
Попереджень: 1 


З нами з: 18.02.12
Востаннє: 05.12.16
Повідомлень: 1379

2016-12-01 21:32  
NeetScrool
додали б тоді ще озвучку Нового.

NeetScrool 
Відео Гуртом - фільмокрай
Відео Гуртом - фільмокрай


З нами з: 10.01.13
Востаннє: 05.12.16
Повідомлень: 2214

2016-12-02 21:02  
[Captain]
Я її не маю. В роздачах 1080р її теж немає.

Ваш часовий пояс: GMT + 2 Години

Нова тема   Відповісти