Завантажити та скачати торренти українською


Шпигунські ігри / Spy Game (2001) 720p Ukr/Eng | Sub Eng

Нові коментарі

Нова тема   Відповісти
Автор Повідомлення
braveboy 
Відео Гуртом - команда HD
Відео Гуртом - команда HD


З нами з: 15.06.10
Востаннє: 29.10.16
Повідомлень: 958

2014-08-17 17:13  

Шпигунські ігри / Spy Game (2001) 720p Ukr/Eng | Sub Eng


Шпигунські ігри / Spy Game (2001) 720p Ukr/Eng | Sub Eng

«In the end, only friendship matters!»

Жанр: екшн, кримінальний, трилер
Країна: США, Німеччина, Франція, Японія



Кінокомпанія: Beacon Communications LLC, Kalima Productions GmbH & Co. KG, Metropolitan Filmexport, Red Wagon Productions, Toho-Towa
Режисер: Тоні Скотт / Tony Scott
Актори: Роберт Редфорд / Robert Redford, Бред Пітт / Brad Pitt, Кeтрін МакKормак / Catherine McCormack, Стівен Діллейн / Stephen Dillane, Ларрі Бріґґмен / Larry Bryggman, Маріанн Жан-Баптіст / Marianne Jean-Baptiste, Тодд Бойс / Todd Boyce, Майкл Пол Чан / Michael Paul Chan, Ґеррік Геґон / Garrick Hagon та інші

Сюжет:
Початок 90-х. Виконуючи небезпечне завдання в Китаї, секретний агент ЦРУ Том Бішоп потрапляє у полон, де він засуджений до страти за обвинуваченням в шпигунстві. Щоб врятувати його у ЦРУ є всього 24 години. Рівно стільки ж залишається до виходу у відставку навченому досвідом колезі й наставникові Бішопа ветеранові ЦРУ Натану М’юру. У момент, коли керівництво ЦРУ вирішує відмовитися від порятунку агента, М’юр вирішує діяти на свій страх і ризик...



Тривалість: 02:06:39
Якість: 720p
Відео:
кодек:
розмір кадру: 1280 х 544
бітрейт: 4104 кб/с

Аудіо # 1:
мова: українська
переклад: багатоголосий закадровий
кодек: 2.0
бітрейт: 192 кб/с

Аудіо # 2:
мова: англійська
переклад: оригінал
кодек: 5.1
бітрейт: 640 кб/с

Джерело озвучення:


Субтитри:
мова: англійська
тип: програмні (м'які)
формат: *.srt
720p by braveboy
log

[info]: frame I:1961 Avg QP:16.65 size: 82928
[info]: frame P:45927 Avg QP:18.80 size: 36053
[info]: frame B:134296 Avg QP:20.80 size: 15468
[info]: consecutive B-frames: 4.0% 5.5% 10.5% 30.2% 12.0% 29.9% 7.9%
[info]: mb I I16..4: 7.4% 78.9% 13.8%
[info]: mb P I16..4: 2.5% 19.9% 2.5% P16..4: 36.4% 19.7% 12.3% 0.4% 0.1% skip: 6.2%
[info]: mb B I16..4: 0.2% 1.9% 0.3% B16..8: 42.5% 14.1% 3.6% direct: 6.7% skip:30.7% L0:44.4% L1:44.1% BI:11.5%
[info]: 8x8 transform intra:80.2% inter:56.1%
[info]: coded y,uvDC,uvAC intra: 89.1% 73.7% 43.7% inter: 37.8% 26.2% 6.0%
[info]: i16 v,h,dc,p: 29% 15% 9% 47%
[info]: i8 v,h,dc,ddl,ddr,vr,hd,vl,hu: 9% 8% 6% 10% 15% 14% 14% 12% 13%
[info]: i4 v,h,dc,ddl,ddr,vr,hd,vl,hu: 9% 9% 4% 9% 15% 14% 15% 11% 13%
[info]: i8c dc,h,v,p: 40% 24% 19% 17%
[info]: Weighted P-Frames: Y:14.4% UV:7.6%
[info]: ref P L0: 45.3% 10.8% 19.6% 7.7% 6.0% 4.2% 3.6% 2.2% 0.5% 0.1%
[info]: ref B L0: 70.4% 14.1% 7.0% 3.7% 2.7% 1.5% 0.6%
[info]: ref B L1: 91.5% 8.5%
[info]: kb/s:4101.48
MediaInfo
Video
ID : 1
Format : AVC
Format/Info : Advanced Video Codec
Format profile : [email protected]
Format settings, CABAC : Yes
Format settings, ReFrames : 8 frames
Codec ID : V_MPEG4/ISO/AVC
Duration : 2h 6mn
Bit rate : 4 104 Kbps
Width : 1 280 pixels
Height : 544 pixels
Display aspect ratio : 2.35:1
Frame rate mode : Constant
Frame rate : 23.976 fps
Color space : YUV
Chroma subsampling : 4:2:0
Bit depth : 8 bits
Scan type : Progressive
Bits/(Pixel*Frame) : 0.246
Stream size : 3.54 GiB (81%)
Title : Spy Game (2001) 720p by braveboy
Writing library : core 135 r2345 f0c1c53
Encoding settings : cabac=1 / ref=8 / deblock=1:-3:-3 / analyse=0x3:0x133 / me=umh / subme=9 / psy=1 / psy_rd=0.80:0.00 / mixed_ref=1 / me_range=24 / chroma_me=1 / trellis=1 / 8x8dct=1 / cqm=0 / deadzone=21,11 / fast_pskip=0 / chroma_qp_offset=-2 / threads=6 / lookahead_threads=1 / sliced_threads=0 / nr=0 / decimate=0 / interlaced=0 / bluray_compat=0 / constrained_intra=0 / bframes=6 / b_pyramid=2 / b_adapt=2 / b_bias=0 / direct=1 / weightb=1 / open_gop=0 / weightp=2 / keyint=240 / keyint_min=24 / scenecut=40 / intra_refresh=0 / rc=2pass / mbtree=0 / bitrate=4104 / ratetol=1.0 / qcomp=0.60 / qpmin=10 / qpmax=51 / qpstep=4 / cplxblur=20.0 / qblur=0.5 / ip_ratio=1.40 / pb_ratio=1.30 / aq=1:1.00
Default : Yes
Forced : No

Audio #1
ID : 2
Format : AC-3
Format/Info : Audio Coding 3
Mode extension : CM (complete main)
Format settings, Endianness : Big
Codec ID : A_AC3
Duration : 2h 6mn
Bit rate mode : Constant
Bit rate : 192 Kbps
Channel(s) : 2 channels
Channel positions : Front: L R
Sampling rate : 48.0 KHz
Bit depth : 16 bits
Compression mode : Lossy
Stream size : 174 MiB (4%)
Title : 2.0 @ 192 kbps
Language : Ukrainian
Default : Yes
Forced : No

Audio #2
ID : 3
Format : AC-3
Format/Info : Audio Coding 3
Mode extension : CM (complete main)
Format settings, Endianness : Big
Codec ID : A_AC3
Duration : 2h 6mn
Bit rate mode : Constant
Bit rate : 640 Kbps
Channel(s) : 6 channels
Channel positions : Front: L C R, Side: L R, LFE
Sampling rate : 48.0 KHz
Bit depth : 16 bits
Compression mode : Lossy
Stream size : 580 MiB (13%)
Title : 5.1 @ 640 kbps
Language : English
Default : No
Forced : No

Text
ID : 4
Format : UTF-8
Codec ID : S_TEXT/UTF8
Codec ID/Info : UTF-8 Plain Text
Title : Full
Language : English
Default : No
Forced : No

Menu
00:00:00.000 : en:00:00:00.000
00:01:41.935 : en:00:01:41.935
00:10:37.637 : en:00:10:37.637
00:12:26.996 : en:00:12:26.996
00:16:05.089 : en:00:16:05.089
00:16:22.481 : en:00:16:22.481
00:17:02.396 : en:00:17:02.396
00:18:42.121 : en:00:18:42.121
00:19:48.312 : en:00:19:48.312
00:21:09.477 : en:00:21:09.477
00:24:59.456 : en:00:24:59.456
00:26:27.336 : en:00:26:27.336
00:27:32.276 : en:00:27:32.276
00:36:24.516 : en:00:36:24.516
00:45:51.999 : en:00:45:51.999
00:50:52.007 : en:00:50:52.007
01:04:18.271 : en:01:04:18.271
01:06:10.925 : en:01:06:10.925
01:13:33.826 : en:01:13:33.826
01:20:09.638 : en:01:20:09.638
01:33:53.336 : en:01:33:53.336
01:35:38.608 : en:01:35:38.608
01:37:28.426 : en:01:37:28.426
01:56:42.412 : en:01:56:42.412
02:01:39.375 : en:02:01:39.375
Скріншоти





Срібний реліз (на рейтинг впливає 50% завантаженого)
 Трекер:    Зареєстрований   

Завантажити / скачати фільм українською



відео для новачків



 Зареєстрований:   2014-08-17 17:20
 Розмір:   4.36 GB 
 Оцінка фільму:   9.9/10 (Голосів: 7)
   
Інші релізи
   Шпигунські ігри / Spy Game (2001) Ukr/Eng | sub Eng DеLight  6 / 0   2.19 GB   2013-10-29 20:10 
Ваш часовий пояс: GMT + 2 Години

Нова тема   Відповісти