Завантажити та скачати торренти українською


Нова Людина-Павук: Дилогія / The Amazing Spider-Man: Dilogy (2012/2014) 3D 1080p Ukr/Eng | Sub Eng [Half OverUnder]

Нові коментарі

Нова тема   Відповісти
Автор Повідомлення
Andick 
Модератор відео та координатор поширення


З нами з: 03.11.09
Востаннє: 10.12.16
Повідомлень: 1499

2014-08-15 17:55  
Нова Людина-Павук: Дилогія / The Amazing Spider-Man: Dilogy (2012/2014)
3D 1080p Ukr/Eng | Sub Eng
[Half OverUnder]


Нова Людина-Павук / The Amazing Spider-Man (2012) 3D 1080p Ukr/Eng | Sub Eng (Half OverUnder)
Нова Людина-Павук / The Amazing Spider-Man (2012) 3D 1080p Ukr/Eng | Sub Eng
[Half OverUnder]



Жанр: бойовик, трилер, фантастика
Країна: США



Кіностудія / кінокомпанія: Columbia Pictures, Laura Ziskin Productions, Marvel Enterprises
Режисер: Марк Вебб (Marc Webb)
Актори: Ендрю Гарфілд (Andrew Garfield), Емма Стоун (Emma Stone), Ембет Девідц (Embeth Davidtz), Мартін Шин (Martin Sheen), Ріс Айфенс (Rhys Ifans), С. Томас Хауелл (C. Thomas Howell), Кріс Зілка (Chris Zylka)

Сюжет:
Пітер Паркер змушений жити зі страшним секретом. Насправді він - легендарний герой Людина-Павук, що захищає мир і спокій жителів свого рідного міста, в якому, до речі, знову неспокійно. В результаті генетичного експерименту, який провалився, професор фізики доктор Курт Коннерс перетворюється в страшного Ящера і наганяє страх та паніку на мешканців округи. У той же час на волі виявляється відомий маніяк Клетус Кеседі, який вже підшукує собі нову жертву. Так що Пітеру Паркеру доведеться на якийсь час відкласти свої особисті проблеми в сторону і дозволити Людині-павуку знайти і знешкодити нових ворогів.


Тривалість: 02:16:17
Якість: 3D 1080p (The.Amazing.Spider-Man.3D.2012.1080p.BluRay.Half.OU..-HDMaNiAcS)
Відео:
кодек:
розмір кадру: 1920 х 1080
бітрейт: 12,5 Мб/с
тип 3D: Half OverUnder / Вертикальна стереопара

Аудіо # 1:
мова: українська
переклад: професійний дубльований
кодек: 5.1
бітрейт: 640 кб/с

Аудіо # 2:
мова: англійська
переклад: оригінал
кодек: 5.1
бітрейт: 1536 кб/с

Субтитри:
мова: англійська
тип: програмні
формат: *.srt

Джерело озвучення:

MediaInfo
General
Unique ID : 246580512599417005047322264654027671014 (0xB981ADE61089510EA4FBA7F60077C5E6)
Complete name : D:\Films\The Amazing Spider-Man Anthology 3D 1080p [Hurtom]\The Amazing Spider-Man (2012) [Ukr,Eng] 3D 1080p [Hurtom].mkv
Format : Matroska
Format version : Version 4 / Version 2
File size : 13.9 GiB
Duration : 2h 16mn
Overall bit rate : 14.6 Mbps
Movie name : Нова Людина-Павук / The Amazing Spider-Man / Новый Человек-паук (2012)
Encoded date : UTC 2014-08-15 15:21:39
Writing application : mkvmerge v6.7.0 ('Back to the Ground') 64bit built on Jan 8 2014 15:10:52
Writing library : libebml v1.3.0 + libmatroska v1.4.1

Video
ID : 1
Format : AVC
Format/Info : Advanced Video Codec
Format profile : [email protected]
Format settings, CABAC : Yes
Format settings, ReFrames : 4 frames
Codec ID : V_MPEG4/ISO/AVC
Duration : 2h 16mn
Bit rate : 12.5 Mbps
Width : 1 920 pixels
Height : 1 080 pixels
Display aspect ratio : 16:9
Frame rate mode : Constant
Frame rate : 23.976 fps
Color space : YUV
Chroma subsampling : 4:2:0
Bit depth : 8 bits
Scan type : Progressive
Bits/(Pixel*Frame) : 0.251
Stream size : 11.6 GiB (83%)
Title : The.Amazing.Spider-Man.3D.2012.1080p.BluRay.Half.OU..-HDMaNiAcS
Writing library : core 128 r2216 198a7ea
Encoding settings : cabac=1 / ref=4 / deblock=1:-2:-2 / analyse=0x3:0x113 / me=esa / subme=10 / psy=1 / psy_rd=1.00:0.15 / mixed_ref=1 / me_range=32 / chroma_me=1 / trellis=2 / 8x8dct=1 / cqm=0 / deadzone=21,11 / fast_pskip=1 / chroma_qp_offset=-3 / threads=12 / lookahead_threads=2 / sliced_threads=0 / nr=0 / decimate=0 / interlaced=0 / bluray_compat=0 / constrained_intra=0 / bframes=8 / b_pyramid=2 / b_adapt=2 / b_bias=0 / direct=3 / weightb=1 / open_gop=0 / weightp=2 / keyint=250 / keyint_min=23 / scenecut=40 / intra_refresh=0 / rc=2pass / mbtree=0 / bitrate=12500 / ratetol=1.0 / qcomp=0.65 / qpmin=0 / qpmax=69 / qpstep=4 / cplxblur=20.0 / qblur=0.5 / ip_ratio=1.35 / pb_ratio=1.25 / aq=1:0.70
Language : English
Default : Yes
Forced : No

Audio #1
ID : 2
Format : AC-3
Format/Info : Audio Coding 3
Mode extension : CM (complete main)
Format settings, Endianness : Big
Codec ID : A_AC3
Duration : 2h 16mn
Bit rate mode : Constant
Bit rate : 640 Kbps
Channel count : 6 channels
Channel positions : Front: L C R, Side: L R, LFE
Sampling rate : 48.0 KHz
Bit depth : 16 bits
Compression mode : Lossy
Stream size : 624 MiB (4%)
Title : Dub [LeDoyen Studio, Blu-ray CEE] 5.1 640 Kbps
Language : Ukrainian
Default : Yes
Forced : No

Audio #2
ID : 3
Format :
Format/Info : Digital Theater Systems
Mode : 16
Format settings, Endianness : Big
Codec ID : A_DTS
Duration : 2h 16mn
Bit rate mode : Constant
Bit rate : 1 509 Kbps
Channel count : 6 channels
Channel positions : Front: L C R, Side: L R, LFE
Sampling rate : 48.0 KHz
Bit depth : 24 bits
Compression mode : Lossy
Stream size : 1.44 GiB (10%)
Title : 5.1 @ 1356 kbps - Original
Language : English
Default : No
Forced : No

Text
ID : 4
Format : UTF-8
Codec ID : S_TEXT/UTF8
Codec ID/Info : UTF-8 Plain Text
Title : Eng full
Language : English
Default : No
Forced : No

Menu
00:00:00.000 : en:00:00:00.000
00:07:45.924 : en:00:07:45.924
00:14:39.670 : en:00:14:39.670
00:22:57.543 : en:00:22:57.543
00:32:58.226 : en:00:32:58.226
00:41:25.066 : en:00:41:25.066
00:48:42.503 : en:00:48:42.503
00:55:10.933 : en:00:55:10.933
01:03:17.293 : en:01:03:17.293
01:12:29.011 : en:01:12:29.011
01:17:51.750 : en:01:17:51.750
01:24:38.949 : en:01:24:38.949
01:34:04.556 : en:01:34:04.556
01:42:59.548 : en:01:42:59.548
01:52:16.355 : en:01:52:16.355
02:00:52.912 : en:02:00:52.912

Скріншоти






Нова Людина-Павук 2: Висока напруга / The Amazing Spider-Man 2 (2014) 3D 1080p Ukr/Eng | Sub Eng (Half OverUnder)
Нова Людина-Павук 2: Висока напруга / The Amazing Spider-Man 2 (2014)
3D 1080p Ukr/Eng | Sub Eng
[Half OverUnder]



Жанр: екшн, пригодницький, фентезі
Країна: США



Кінокомпанія: Marvel Enterprises, Avi Arad Productions, Columbia Pictures
Режисер: Марк Вебб
Актори: Ендрю Ґарфілд, Емма Стоун, Джеймі Фокс, Дейн ДеГаан, Колм Фіор, Фелісіті Джонс, Пол Джаматті, Саллі Філд, Ембет Девідц, Кемпбелл Скотт

Сюжет:
Пітер Паркер під маскою Людини-Павука як і раніше рятує світ від лиходіїв і злочинців, а вільний час проводить зі своєю коханою Ґвен, але шкільна пора наближається до кінця, і попереду героїв чекає доросле життя. Пітер пам'ятає про те, що дав батькові Ґвен слово назавжди піти з життя дівчини, тим самим не піддавати її життя небезпеці. Однак стримати цю обіцянку не так просто. Доля готує Пітеру сюрпризи: на шляху героя з'явиться новий ворог - Електро, він знову зустрінеться з давнім приятелем Гаррі Озборном і дізнається багато нового про минуле своєї сім'ї.


Тривалість: 02:21:34
Якість: 3D 1080p (The Amazing Spider-Man 2 2014 1080p 3D BluRay Half-OU -HDMaNiAcS)
Відео:
кодек:
розмір кадру: 1920 х 1080
бітрейт: 13,4 Мб/с
тип 3D: Half OverUnder / Вертикальна стереопара

Аудіо # 1:
мова: українська
переклад: професійний дубльований
кодек: 5.1
бітрейт: 640 кб/с

Аудіо # 2:
мова: англійська
переклад: оригінал
кодек: 5.1
бітрейт: 1536 кб/с

Аудіо # 3:
мова: англійська
переклад: оригінал (коментарі)
кодек: 2.0
бітрейт: 192 кб/с

Субтитри # 1:
мова: англійська
тип: пререндерні
формат: *.pgs

Субтитри # 2:
мова: англійська (коментарі)
тип: програмні
формат: *.srt

Джерело озвучення:

MediaInfo
General
Unique ID : 175194983998260456820107940687523228277 (0x83CD539AAC3AF75CA798922C2DF22A75)
Complete name : D:\Films\The Amazing Spider-Man Anthology 3D 1080p [Hurtom]\The Amazing Spider-Man 2 (2014) [Ukr,Eng] 3D 1080p [Hurtom].mkv
Format : Matroska
Format version : Version 4 / Version 2
File size : 15.9 GiB
Duration : 2h 21mn
Overall bit rate : 16.1 Mbps
Movie name : Нова Людина-Павук / The Amazing Spider-Man / Новый Человек-паук (2012)
Encoded date : UTC 2014-08-15 15:10:20
Writing application : mkvmerge v6.7.0 ('Back to the Ground') 64bit built on Jan 8 2014 15:10:52
Writing library : libebml v1.3.0 + libmatroska v1.4.1

Video
ID : 1
Format : AVC
Format/Info : Advanced Video Codec
Format profile : [email protected]
MultiView_Count : 2
MultiView_Layout : Top-Bottom (left eye first)
Format settings, CABAC : Yes
Format settings, ReFrames : 4 frames
Codec ID : V_MPEG4/ISO/AVC
Duration : 2h 21mn
Bit rate : 13.4 Mbps
Width : 1 920 pixels
Height : 1 080 pixels
Display aspect ratio : 16:9
Frame rate mode : Constant
Frame rate : 23.976 fps
Color space : YUV
Chroma subsampling : 4:2:0
Bit depth : 8 bits
Scan type : Progressive
Bits/(Pixel*Frame) : 0.270
Stream size : 13.3 GiB (83%)
Title : The Amazing Spider-Man 2 2014 1080p 3D BluRay Half-OU -HDMaNiAcS
Writing library : core 142 r2431kMod ac76440
Encoding settings : cabac=1 / ref=4 / deblock=1:-3:-3 / analyse=0x3:0x113 / me=umh / subme=11 / psy=1 / fade_compensate=0.00 / psy_rd=1.00:0.00 / mixed_ref=1 / me_range=24 / chroma_me=1 / trellis=2 / 8x8dct=1 / cqm=0 / deadzone=21,11 / fast_pskip=1 / chroma_qp_offset=-2 / threads=12 / lookahead_threads=2 / sliced_threads=0 / nr=0 / decimate=0 / interlaced=0 / bluray_compat=0 / constrained_intra=0 / fgo=0 / bframes=7 / b_pyramid=2 / b_adapt=2 / b_bias=0 / direct=3 / weightb=1 / open_gop=0 / weightp=2 / keyint=250 / keyint_min=23 / scenecut=40 / intra_refresh=0 / rc_lookahead=40 / rc=crf / mbtree=0 / crf=17.0000 / qcomp=0.65 / qpmin=0 / qpmax=69 / qpstep=4 / vbv_maxrate=40000 / vbv_bufsize=30000 / crf_max=0.0 / nal_hrd=none / filler=0 / frame-packing=4 / ip_ratio=1.30 / pb_ratio=1.20 / aq=1:0.60
Language : English
Default : Yes
Forced : No

Audio #1
ID : 2
Format : AC-3
Format/Info : Audio Coding 3
Mode extension : CM (complete main)
Format settings, Endianness : Big
Codec ID : A_AC3
Duration : 2h 21mn
Bit rate mode : Constant
Bit rate : 640 Kbps
Channel count : 6 channels
Channel positions : Front: L C R, Side: L R, LFE
Sampling rate : 48.0 KHz
Bit depth : 16 bits
Compression mode : Lossy
Stream size : 648 MiB (4%)
Title : 5.1 @ 640 kbps - DUB, Blu-ray CEE
Language : Ukrainian
Default : Yes
Forced : No

Audio #2
ID : 3
Format :
Format/Info : Digital Theater Systems
Mode : 16
Format settings, Endianness : Big
Codec ID : A_DTS
Duration : 2h 21mn
Bit rate mode : Constant
Bit rate : 1 509 Kbps
Channel count : 6 channels
Channel positions : Front: L C R, Side: L R, LFE
Sampling rate : 48.0 KHz
Bit depth : 24 bits
Compression mode : Lossy
Stream size : 1.49 GiB (9%)
Title : 5.1 @ 1356 kbps - Original
Language : English
Default : No
Forced : No

Audio #3
ID : 4
Format : AC-3
Format/Info : Audio Coding 3
Format profile : Dolby Digital
Mode extension : CM (complete main)
Format settings, Endianness : Big
Codec ID : A_AC3
Duration : 2h 21mn
Bit rate mode : Constant
Bit rate : 192 Kbps
Channel count : 2 channels
Channel positions : Front: L R
Sampling rate : 48.0 KHz
Bit depth : 16 bits
Compression mode : Lossy
Stream size : 194 MiB (1%)
Title : 2.0 @ 192 kbps - Commentary with Writers Alex Kurtzman and Jeff Pinkner and Producers Matt Tolmach and Avi Arad
Language : English
Default : No
Forced : No

Text #1
ID : 5
Format : PGS
Muxing mode : zlib
Codec ID : S_HDMV/PGS
Codec ID/Info : The same subtitle format used on BDs/HD-DVDs
Language : English
Default : No
Forced : No

Text #2
ID : 6
Format : UTF-8
Codec ID : S_TEXT/UTF8
Codec ID/Info : UTF-8 Plain Text
Title : Commentary
Language : English
Default : No
Forced : No

Menu
00:00:00.000 : en:00:00:00.000
00:07:05.342 : en:00:07:05.342
00:14:28.201 : en:00:14:28.201
00:20:13.838 : en:00:20:13.838
00:29:27.099 : en:00:29:27.099
00:39:02.590 : en:00:39:02.590
00:50:56.804 : en:00:50:56.804
00:59:52.756 : en:00:59:52.756
01:08:53.129 : en:01:08:53.129
01:16:19.950 : en:01:16:19.950
01:25:27.706 : en:01:25:27.706
01:35:23.259 : en:01:35:23.259
01:41:30.334 : en:01:41:30.334
01:49:18.343 : en:01:49:18.343
01:57:00.639 : en:01:57:00.639
02:04:44.352 : en:02:04:44.352

Скріншоти







Увага!!!
Відео виконане в форматі 3D!

Рекомендується для перегляду на 3D телевізорах з пасивною технологією
Для перегляду на компютері потрібні анагліфні окуляри та стереоплеєр


Інструкції щодо перегляду відео у форматі 3D


Джерело: & & HD-Torrents


Срібний реліз (на рейтинг впливає 50% завантаженого)
 Трекер:    Зареєстрований   

Завантажити / скачати фільм українською



відео для новачків



 Зареєстрований:   2014-08-15 17:55
 Розмір:   29.87 GB 
 Оцінка фільму:   8.5/10 (Голосів: 12)
   
donald_spark 
Новенький


З нами з: 17.08.14
Востаннє: 11.12.16
Повідомлень: 19

2014-12-24 14:11  
хтось є на роздачі?
Purdun 
Свій


З нами з: 05.09.13
Востаннє: 29.08.16
Повідомлень: 82

2015-03-11 00:54  
По ICTV, може хто хоче глянути.
Xander1985 
Новенький


З нами з: 16.02.10
Востаннє: 25.09.16
Повідомлень: 3

2016-06-11 15:33  
народ, станьте будь ласка на роздачу, бо дуже хочу подивитися, а воно ледве вантажить
Ваш часовий пояс: GMT + 2 Години

Нова тема   Відповісти