Завантажити та скачати торренти українською


Реальна сталь / Real Steel (2011) 720p-mini [60fps]

Нові коментарі

Нова тема   Відповісти
Автор Повідомлення
Drool 
VIP


З нами з: 17.04.10
Востаннє: 03.12.16
Повідомлень: 1262

2014-08-12 07:41  
Реальна сталь / Real Steel (2011) 720p-mini [60fps]

Жанр: пригодницький, бойовик, фантастика, сімейний
Країна: США, Індія



Кінокомпанія: ouchstone Pictures, DreamWorks SKG, 21 Laps Entertainment
Режисер: Шон Леві
Актори: Г'ю Джекман, Дакота Ґойо, Еванджелін Ліллі, Кевін Дюранд, Ентоні Макі, Джеймс Реборн, Гоуп Девіс, Ольга Фонда

Сюжет:
Після заборони боксу, людей на рингу змінили керовані роботи. Чарлі Кент, в минулому відомий боксер і без п’яти хвилин чемпіон, в нових умовах не досягнув успіху. Його механічні підопічні зазнавали на ринзі поразку за поразкою і Чарлі втратив гроші та заліз по самі вуха у борги. Шанс все змінити приходить, коли герой фільму разом зі своїм сином Максом вирушає на звалище і серед купи непотребу знаходить викинутого робота, що має непоганий потенціал.


Тривалість: 02:06:50
Якість: 720p-mini
Відео:
кодек:
розмір кадру: 1280x544
бітрейт: 5590 кб/с
частота кадрів: 59.940 кадрів/с

Аудіо:
мова: українська
переклад: професійний дубльований
кодек: 5.1
бітрейт: 640 кб/с

Джерело озвучення:


Субтитри:
мова: українська (форсовані)
тип: програмні (м'які)
формат: *.srt
MediaInfo
General
Unique ID : 135555972026753947785572891233354943130 (0x65FB216CD1776A38B18FC4148F928A9A)
Complete name : /mnt/disk_d/Video/Real.Steel.2011.Ukr.Dub..720p-mini.60fps.mkv
Format : Matroska
Format version : Version 4 / Version 2
File size : 5.52 GiB
Duration : 2h 6mn
Overall bit rate : 6 234 Kbps
Movie name : Реальна сталь / Real Steel (2011) 720p-mini [60fps] [NNNB, envy]
Encoded date : UTC 2010-02-22 21:41:31
Writing application : mkvmerge v6.1.0 ('Old Devil') built on Apr 14 2013 12:25:55
Writing library : libebml v1.3.0 + libmatroska v1.4.0

Video
ID : 1
Format : AVC
Format/Info : Advanced Video Codec
Format profile : [email protected]
Format settings, CABAC : Yes
Format settings, ReFrames : 9 frames
Codec ID : V_MPEG4/ISO/AVC
Duration : 2h 6mn
Bit rate : 5 590 Kbps
Width : 1 280 pixels
Height : 544 pixels
Display aspect ratio : 2.35:1
Frame rate : 59.940 fps
Color space : YUV
Chroma subsampling : 4:2:0
Bit depth : 8 bits
Scan type : Progressive
Bits/(Pixel*Frame) : 0.134
Stream size : 4.85 GiB (88%)
Title : Реальна сталь / Real Steel (2011) 720p-mini [60fps] [NNNB, envy]
Writing library : core 130 r2273 b3065e6
Encoding settings : cabac=1 / ref=9 / deblock=1:0:0 / analyse=0x3:0x133 / me=umh / subme=10 / psy=1 / psy_rd=1.00:0.10 / mixed_ref=1 / me_range=28 / chroma_me=1 / trellis=2 / 8x8dct=1 / cqm=0 / deadzone=21,11 / fast_pskip=0 / chroma_qp_offset=-3 / threads=12 / lookahead_threads=1 / sliced_threads=0 / nr=0 / decimate=1 / interlaced=0 / bluray_compat=0 / constrained_intra=0 / bframes=5 / b_pyramid=2 / b_adapt=2 / b_bias=0 / direct=3 / weightb=1 / open_gop=0 / weightp=2 / keyint=250 / keyint_min=25 / scenecut=40 / intra_refresh=0 / rc=2pass / mbtree=0 / bitrate=5590 / ratetol=1.0 / qcomp=0.60 / qpmin=0 / qpmax=69 / qpstep=4 / cplxblur=20.0 / qblur=0.5 / ip_ratio=1.40 / pb_ratio=1.30 / aq=1:1.00
Default : Yes
Forced : No

Audio
ID : 2
Format : AC-3
Format/Info : Audio Coding 3
Mode extension : CM (complete main)
Codec ID : A_AC3
Duration : 2h 6mn
Bit rate mode : Constant
Bit rate : 640 Kbps
Channel(s) : 6 channels
Channel positions : Front: L C R, Side: L R, LFE
Sampling rate : 48.0 KHz
Bit depth : 16 bits
Compression mode : Lossy
Delay relative to video : 16ms
Stream size : 581 MiB (10%)
Title : 5.1 640 kbps DUB, Blu-ray
Language : Ukrainian
Default : Yes
Forced : Yes

Text
ID : 3
Format : UTF-8
Codec ID : S_TEXT/UTF8
Codec ID/Info : UTF-8 Plain Text
Title : Forced
Language : Ukrainian
Default : Yes
Forced : Yes
Скріншоти




Джерело:
Особиста оцінка: 10 - без зайвих вагань рекомендую всім!


 Трекер:    Зареєстрований   

Завантажити / скачати фільм українською



відео для новачків



 Зареєстрований:   2014-08-12 16:26
 Розмір:   5.52 GB 
 Оцінка фільму:   9.4/10 (Голосів: 21)
   
Інші релізи
   Реальна сталь / Real Steel (2011) DVD9 Eng/Rus/Ukr | Ліцензія Beffis  1 / 0   6.82 GB   2012-04-28 14:47 
   Реальна сталь / Real Steel (2011) 720p Ukr | Sub Ukr/Eng Zeus62  1 / 0   4.3 GB   2012-02-02 11:58 
   Реальна сталь / Real Steel (2011) Ukr/Eng | Sub Ukr/Eng hellforces  3 / 2   2.52 GB   2012-02-01 12:49 
   Реальна сталь / Real Steel (2011) 1080p Ukr/Eng | Sub Ukr/Eng ratbol  3 / 0   13.92 GB   2012-01-31 16:19 
   Реальна сталь / Real Steel (2011) Jatx_11  7 / 0   1.62 GB   2012-01-31 12:14 
   Реальна сталь / Real Steel (2011) AVC seroga13  2 / 0   2.57 GB   2012-01-31 10:34 
   Реальна сталь / Real Steel (2011) 720p Ukr/Eng | Sub Ukr/Eng Віктор  3 / 0   7.66 GB   2012-01-31 09:44 
bot 
робот


З нами з: 30.09.07
Востаннє: 26.05.05
Повідомлень: 15983

2014-08-12 07:41  
Тему перенесено з Фільми в HD до форуму Анонси релізів


Drool

bot 
робот


З нами з: 30.09.07
Востаннє: 26.05.05
Повідомлень: 15983

2014-08-12 16:26  
Тему перенесено з Анонси релізів до форуму Фільми в HD


Drool

Ваш часовий пояс: GMT + 2 Години

Нова тема   Відповісти