Завантажити та скачати торренти українською


Детективна агенція Лассе та Майї - Таємниця фон Бромса / LasseMajas detektivbyrå - Von Broms hemlighet (2013) 720p Swe| Sub Ukr

Нові коментарі

Нова тема   Відповісти
Останній раз роздавалося 1101 (2016-12-05)
Автор Повідомлення
1101 
Свій


З нами з: 09.07.12
Востаннє: 24.11.16
Повідомлень: 62

2014-08-10 20:34  
Детективна агенція Лассе та Майї - Таємниця фон Бромса / LasseMajas detektivbyrå - Von Broms hemlighet (2013) 720p Swe| Sub Ukr

Детективна агенція Лассе та Майї - Таємниця фон Бромса / LasseMajas detektivbyrå - Von Broms hemlighet (2013) 720p Swe| Sub Ukr


Жанр: сімейний, детектив
Країна: Швеція



Кінокомпанія: AB Svensk Filmindustri
Режисер: Понтус Кленге / Pontus Klänge, Вальтер Сьодерлунд / Walter Söderlund
Актори: Аманда Паюс, Лукас Хольгерссон, Кайса Ернст, Петер Магнуссон, Адам Полссон, Томас Нурстрьом, Стен Ельфстрьом, Сюзанне Емруп та інші.

Сюжет:
Лассе та Майя, юні детективи з крихітного містечка Валлебю, знаходять таємничу старовинну скриньку, виготовлену понад два століття до того ексцентричним винахідником і композитором Александром фон Бромсом. Коли до Валлебю приїжджають нащадки фон Бромса, скриньку несподівано викрадають. Лассе та Майя мають дізнатися, хто це зробив і навіщо.


Тривалість: 01:17:15
Якість:
Відео:
кодек:
розмір кадру: 1280 х 688
бітрейт: 4559 кб/с

Аудіо:
мова: шведська
переклад: оригінал
кодек: 5.1
бітрейт: 1510 кб/с

Субтитри:
мова: українська (аматорський переклад з данських субтитрів)
тип: програмні (м'які)
формат: *.srt
MediaInfo
Format : Matroska
Format version : Version 2
File size : 3.27 GiB
Duration : 1h 17mn
Overall bit rate : 6 067 Kbps
Encoded date : UTC 2014-08-10 17:50:10
Writing application : mkvmerge v5.0.0 ('Die Wahre Liebe') built on Sep 25 2011 20:33:49
Writing library : libebml v1.2.2 + libmatroska v1.3.0

Video
ID : 1
Format : AVC
Format/Info : Advanced Video Codec
Format profile : [email protected]
Format settings, CABAC : Yes
Format settings, ReFrames : 5 frames
Codec ID : V_MPEG4/ISO/AVC
Duration : 1h 17mn
Bit rate : 4 559 Kbps
Width : 1 280 pixels
Height : 688 pixels
Display aspect ratio : 1.860
Frame rate : 25.000 fps
Color space : YUV
Chroma subsampling : 4:2:0
Bit depth : 8 bits
Scan type : Progressive
Bits/(Pixel*Frame) : 0.207
Stream size : 2.39 GiB (73%)
Title :
Writing library : core 140 r2377 1ca7bb9
Encoding settings : cabac=1 / ref=5 / deblock=1:0:0 / analyse=0x3:0x133 / me=umh / subme=7 / psy=1 / psy_rd=1.00:0.00 / mixed_ref=1 / me_range=16 / chroma_me=1 / trellis=1 / 8x8dct=1 / cqm=0 / deadzone=21,11 / fast_pskip=0 / chroma_qp_offset=-2 / threads=36 / lookahead_threads=5 / sliced_threads=0 / nr=0 / decimate=1 / interlaced=0 / bluray_compat=0 / constrained_intra=0 / bframes=3 / b_pyramid=2 / b_adapt=1 / b_bias=0 / direct=1 / weightb=1 / open_gop=0 / weightp=2 / keyint=250 / keyint_min=25 / scenecut=40 / intra_refresh=0 / rc_lookahead=40 / rc=2pass / mbtree=1 / bitrate=4559 / ratetol=1.0 / qcomp=0.60 / qpmin=0 / qpmax=69 / qpstep=4 / cplxblur=20.0 / qblur=0.5 / ip_ratio=1.40 / aq=1:1.00
Language : English
Default : Yes
Forced : No

Audio
ID : 2
Format :
Format/Info : Digital Theater Systems
Codec ID : A_DTS
Duration : 1h 17mn
Bit rate mode : Constant
Bit rate : 1 510 Kbps
Channel(s) : 6 channels
Channel positions : Front: L C R, Side: L R, LFE
Sampling rate : 48.0 KHz
Bit depth : 24 bits
Compression mode : Lossy
Stream size : 834 MiB (25%)
Title :
Language : English
Default : Yes
Forced : No

Text
ID : 3
Format : UTF-8
Codec ID : S_TEXT/UTF8
Codec ID/Info : UTF-8 Plain Text
Language : Ukrainian
Default : Yes
Forced : Yes

Menu
00:00:00.000 : en:00:00:00.000
00:09:53.360 : en:00:09:53.360
00:22:49.520 : en:00:22:49.520
00:30:15.720 : en:00:30:15.720
00:39:06.800 : en:00:39:06.800
00:49:53.320 : en:00:49:53.320
01:00:15.040 : en:01:00:15.040
01:14:06.920 : en:01:14:06.920
Скріншоти








Джерело: Piratebay
Особиста оцінка: 10 - без зайвих вагань рекомендую всім! Якщо все ж таки вирішите дивитися, то дивіться до кінця - у фіналі автори відірвалися на повну!!!


Золотий реліз (завантажене не впливає на рейтинг)
 Трекер:    Зареєстрований   

Завантажити / скачати фільм українською



відео для новачків



 Зареєстрований:   2014-08-10 20:34
 Розмір:   3.27 GB 
 Оцінка фільму:   10/10 (Голосів: 5)
   
igor911 
Відео Гуртом
Відео Гуртом


З нами з: 18.01.08
Востаннє: 06.12.16
Повідомлень: 5155

2014-08-11 07:41  
Заміни, будь ласка, скріншоти - вони мають бути у форматі png у розділі HD.
Xshot 
VIP


З нами з: 22.09.09
Востаннє: 27.11.16
Повідомлень: 1535

2014-08-18 21:52  
Тип субтитрів програмні має бути
igor911 
Відео Гуртом
Відео Гуртом


З нами з: 18.01.08
Востаннє: 06.12.16
Повідомлень: 5155

2014-08-19 07:26  
виправив
Ваш часовий пояс: GMT + 2 Години

Нова тема   Відповісти