Завантажити та скачати торренти українською


Ildjarn / Hate Forest ‎– Those Once Mighty Fallen (split) (2013) [FLAC] | Black Metal / Dark Ambient

Нові коментарі

Нова тема   Відповісти
Останній раз роздавалося rpm68 (2016-11-20)
Автор Повідомлення
Lev 
VIP


З нами з: 14.10.09
Востаннє: 09.12.16
Повідомлень: 1819

2014-08-10 02:56  
Ildjarn / Hate Forest ‎– Those Once Mighty Fallen (split) (2013) [FLAC] | Black Metal / Dark Ambient

Ildjarn / Hate Forest ‎– Those Once Mighty Fallen (split) (2013) [FLAC] | Black Metal / Dark Ambient


Стиль: Black Metal / Dark Ambient
Країна, місто: Норвегія, Bø, Telemark / Україна, Харків
Видавець: Osmose Productions
Пісні:

    01. Ildjarn - Forest Crypt (07:35)
    02. Ildjarn - Ashes Of Stars (05:21)
    03. lldjarn - Birds Of Misty Dusk (03:26)
    04. Ildjarn - Gates To Bottomless Halls (01:04)
    05. Ildjarn - Mountains Covered With Snow Forever (04:03)
    06. Ildjarn - Northern Kingdoms Fell (04:53)
    07. Hate Forest - Cimmerian Shadows (02:56)
    08. Hate Forest - Howl Of Hyperborean Winters (04:27)
    09. Hate Forest - Sigil Of The Gateway (04:19)
    10. Hate Forest - Crowned With Crescent Horns (08:04)
    11. Hate Forest - Abyss Wanderer (05:49)

Тривалість: 00:51:41
Мова: англійська (1-4, 6, 8-11), без слів (5, 7)
Аудіо-кодек: FLAC
Бітрейт: 1049 кб/с
Джерело: інший торрент-трекер
Додаткова інформація:
Спліт двох фундаментальних для стилю, давно неактивних команд, що містить ексклюзивний раніше не виданий матеріал.

Треки 1-6 створені Ildjarn в середині 90-х. Віднайдені у 2013.
Треки 7-11 створені Hate Forest у 2000/2001 рр. Віднайдені у 2012.
log EAC
Exact Audio Copy V1.0 beta 3 from 29. August 2011

EAC extraction logfile from 25. November 2013, 17:18

Ildjarn Hate Forest / Those Once Mighty Fallen

Used drive : ASUS DRW-24B3ST Adapter: 1 ID: 1

Read mode : Secure
Utilize accurate stream : Yes
Defeat audio cache : Yes
Make use of C2 pointers : No

Read offset correction : 6
Overread into Lead-In and Lead-Out : No
Fill up missing offset samples with silence : Yes
Delete leading and trailing silent blocks : No
Null samples used in CRC calculations : Yes
Used interface : Native Win32 interface for Win NT & 2000

Used output format : User Defined Encoder
Selected bitrate : 128 kBit/s
Quality : High
Add ID3 tag : No
Command line compressor : C:\Program Files\Exact Audio Copy\Flac\flac.exe
Additional command line options : -V -8 -T "Date=%year%" -T "Genre=%genre%" %source%

TOC of the extracted CD

Track | Start | Length | Start sector | End sector
---------------------------------------------------------
1 | 0:00.00 | 7:35.65 | 0 | 34189
2 | 7:35.65 | 5:21.31 | 34190 | 58295
3 | 12:57.21 | 3:26.31 | 58296 | 73776
4 | 16:23.52 | 1:04.11 | 73777 | 78587
5 | 17:27.63 | 4:03.07 | 78588 | 96819
6 | 21:30.70 | 4:53.62 | 96820 | 118856
7 | 26:24.57 | 2:56.17 | 118857 | 132073
8 | 29:20.74 | 4:27.53 | 132074 | 152151
9 | 33:48.52 | 4:19.09 | 152152 | 171585
10 | 38:07.61 | 8:04.28 | 171586 | 207913
11 | 46:12.14 | 5:49.51 | 207914 | 234139

Range status and errors

Selected range

Filename C:\Users\vvb05\Desktop\Audio\Ildjarn Hate Forest - Those Once Mighty Fallen.wav

Peak level 98.8 %
Extraction speed 8.3 X
Range quality 100.0 %
Test CRC 7BCA3B69
Copy CRC 7BCA3B69
Copy OK

No errors occurred

AccurateRip summary

Track 1 not present in database
Track 2 not present in database
Track 3 not present in database
Track 4 not present in database
Track 5 not present in database
Track 6 not present in database
Track 7 not present in database
Track 8 not present in database
Track 9 not present in database
Track 10 not present in database
Track 11 not present in database

None of the tracks are present in the AccurateRip database

End of status report

==== Log checksum 761DC78F331F27A01DC0843F033E911A8C09D6DE3C1400B149972F77BE1B7E9E ====




Якщо Ви справді бажаєте підтримати українське - після прослуховування, якщо музика вам сподобалась, придбайте ліцензійний диск. Підтримаймо вітчизняних виконавців!


Срібний реліз (на рейтинг впливає 50% завантаженого)
 Трекер:    Зареєстрований   

Завантажити / скачати українську музику



відео для новачків



 Зареєстрований:   2014-08-10 02:56
 Розмір:   396 MB 
 Оцінка музики:   7.8/10 (Голосів: 4)
   
Ваш часовий пояс: GMT + 2 Години

Нова тема   Відповісти