Завантажити та скачати торренти українською


Нова Людина-Павук 2: Висока напруга / The Amazing Spider-Man 2 (2014) 720p-mini [60fps]

Нові коментарі

Нова тема   Відповісти
Автор Повідомлення
Drool 
VIP


З нами з: 17.04.10
Востаннє: 02.12.16
Повідомлень: 1262

2014-08-07 18:41  
Нова Людина-Павук 2: Висока напруга / The Amazing Spider-Man 2 (2014) 720p-mini [60fps]

Жанр: бойовик, пригоди, фентезі
Країна: США



Кінокомпанія: Marvel Enterprises, Avi Arad Productions, Columbia Pictures
Режисер: Марк Вебб
Актори: Ендрю Ґарфілд, Емма Стоун, Джеймі Фокс, Дейн ДеГаан, Колм Фіор, Фелісіті Джонс, Пол Джаматті, Саллі Філд, Ембет Девідц, Кемпбелл Скотт

Сюжет:
Пітер Паркер під маскою Людини-Павука як і раніше рятує світ від лиходіїв і злочинців, а вільний час проводить зі своєю коханою Ґвен, але шкільна пора наближається до кінця, і попереду героїв чекає доросле життя. Пітер пам'ятає про те, що дав батькові Ґвен слово назавжди піти з життя дівчини, тим самим не піддавати її життя небезпеці. Однак стримати цю обіцянку не так просто. Доля готує Пітеру сюрпризи: на шляху героя з'явиться новий ворог - Електро, він знову зустрінеться з давнім приятелем Гаррі Озборном і дізнається багато нового про минуле своєї сім'ї.


Тривалість: 02:21:34
Якість: 720p-mini
Відео:
кодек:
розмір кадру: 1280x534
бітрейт: 5360 кб/с
частота кадрів: 59.940 кадрів/с

Аудіо:
мова: українська
переклад: професійний дубльований
кодек: 5.1
бітрейт: 448 кб/с
Джерело озвучення:


Субтитри:
мова: українська (форсовані)
тип: програмні (м'які)
формат: *.srt
MediaInfo
General
Unique ID : 306863641438956752244544094545158143152 (0xE6DBC99F7070E4A198280A8F15B0FCB0)
Complete name : /mnt/disk_d/Video/The.Amazing.Spider-Man.2.2014.Ukr.Dub..720p-mini.60fps.mkv
Format : Matroska
Format version : Version 4 / Version 2
File size : 5.75 GiB
Duration : 2h 21mn
Overall bit rate : 5 813 Kbps
Movie name : Нова Людина-Павук 2: Висока напруга / The Amazing Spider-Man 2 (2014) 720p-mini [60fps] [NNNB, envy]
Encoded date : UTC 2010-02-22 21:41:31
Writing application : mkvmerge v6.1.0 ('Old Devil') built on Apr 14 2013 12:25:55
Writing library : libebml v1.3.0 + libmatroska v1.4.0

Video
ID : 1
Format : AVC
Format/Info : Advanced Video Codec
Format profile : [email protected]
Format settings, CABAC : Yes
Format settings, ReFrames : 9 frames
Codec ID : V_MPEG4/ISO/AVC
Duration : 2h 21mn
Bit rate : 5 360 Kbps
Width : 1 280 pixels
Height : 534 pixels
Display aspect ratio : 2.40:1
Frame rate : 59.940 fps
Color space : YUV
Chroma subsampling : 4:2:0
Bit depth : 8 bits
Scan type : Progressive
Bits/(Pixel*Frame) : 0.131
Stream size : 5.19 GiB (90%)
Title : Нова Людина-Павук 2: Висока напруга / The Amazing Spider-Man 2 (2014) 720p-mini [60fps] [NNNB, envy]
Writing library : core 130 r2273 b3065e6
Encoding settings : cabac=1 / ref=9 / deblock=1:0:0 / analyse=0x3:0x133 / me=umh / subme=10 / psy=1 / psy_rd=1.00:0.10 / mixed_ref=1 / me_range=28 / chroma_me=1 / trellis=2 / 8x8dct=1 / cqm=0 / deadzone=21,11 / fast_pskip=0 / chroma_qp_offset=-3 / threads=12 / lookahead_threads=1 / sliced_threads=0 / nr=0 / decimate=1 / interlaced=0 / bluray_compat=0 / constrained_intra=0 / bframes=6 / b_pyramid=2 / b_adapt=2 / b_bias=0 / direct=3 / weightb=1 / open_gop=0 / weightp=2 / keyint=250 / keyint_min=25 / scenecut=40 / intra_refresh=0 / rc=2pass / mbtree=0 / bitrate=5360 / ratetol=1.0 / qcomp=0.60 / qpmin=0 / qpmax=69 / qpstep=4 / cplxblur=20.0 / qblur=0.5 / ip_ratio=1.40 / pb_ratio=1.30 / aq=1:1.00
Default : Yes
Forced : Yes

Audio
ID : 2
Format : AC-3
Format/Info : Audio Coding 3
Mode extension : CM (complete main)
Codec ID : A_AC3
Duration : 2h 21mn
Bit rate mode : Constant
Bit rate : 448 Kbps
Channel(s) : 6 channels
Channel positions : Front: L C R, Side: L R, LFE
Sampling rate : 48.0 KHz
Bit depth : 16 bits
Compression mode : Lossy
Stream size : 454 MiB (8%)
Title : 5.1 448 kbps DUB, Blu-ray
Language : Ukrainian
Default : Yes
Forced : Yes

Text
ID : 3
Format : UTF-8
Codec ID : S_TEXT/UTF8
Codec ID/Info : UTF-8 Plain Text
Title : Forced
Language : Ukrainian
Default : Yes
Forced : Yes
Скріншоти



Джерело:
Особиста оцінка: 8 - мені сподобалося


 Трекер:    Зареєстрований   

Завантажити / скачати фільм українською



відео для новачків



 Зареєстрований:   2014-08-13 13:18
 Розмір:   5.75 GB 
 Оцінка фільму:   8.7/10 (Голосів: 19)
   
VolSHeBniK17 
Свій


З нами з: 29.05.12
Востаннє: 02.12.16
Повідомлень: 113

2014-08-12 18:48  
Хочу подивитись , бо цікаво чи зауважу різницю між цією частотою кадрів та простою. Можна дивитись через будь-який плеєр?
Drool 
VIP


З нами з: 17.04.10
Востаннє: 02.12.16
Повідомлень: 1262

2014-08-13 08:22  
VolSHeBniK17 написано:
Можна дивитись через будь-який плеєр?

Так, через будь-який прогавач чи апаратним програвачем на телевізорі.

FreeGuest 
VIP


З нами з: 12.01.12
Востаннє: 01.12.16
Повідомлень: 271

2014-08-13 13:45  
Нещодавно подивився Людину зі сталі с частотою кадрів, дуже незвично але дуже класно)
Тепер подивимось і павука. Щиро дякую за реліз.

Drool 
VIP


З нами з: 17.04.10
Востаннє: 02.12.16
Повідомлень: 1262

2014-08-13 14:01  
Ну так шановні поціновувачі відео підвищеної плавності! В мене досить обьмежений на віддачу канал інтернету. То може долучитесь до створення таких релізів на толоці?

Додано через 7 хвилин 39 секунд:

От той же "Людина зі сталі" в 60fps. Слабо, FreeGuest? Там майже 10 гектар, для мене трішки важкувато.

FreeGuest 
VIP


З нами з: 12.01.12
Востаннє: 01.12.16
Повідомлень: 271

2014-08-13 14:08  
Drool, я не проти, тільки згадаю як прикрутиту укр. звукову доріжку до відео, бо давно вже такого не робив)
Drool 
VIP


З нами з: 17.04.10
Востаннє: 02.12.16
Повідомлень: 1262

2014-08-13 14:18  
FreeGuest написано:
Drool, я не проти, тільки згадаю як прикрутиту укр. звукову доріжку до відео, бо давно вже такого не робив)

MKVtoolnix

VolSHeBniK17 
Свій


З нами з: 29.05.12
Востаннє: 02.12.16
Повідомлень: 113

2014-08-13 17:49  
А на блюреї є озвучені вирізані сцени?
ruba015 
Новенький


З нами з: 15.03.13
Востаннє: 22.11.16
Повідомлень: 23

2014-08-13 21:14  
Дякую за реліз, тільки що подивився цей фільм, якість картинки просто БОМБА, якіснішої картинки я ще не бачив, таке відчуття ніби я дивлюся 3Д кіно без 3Д окулярів. Побільше б таких фільмів з частотою 60fps
Drool 
VIP


З нами з: 17.04.10
Востаннє: 02.12.16
Повідомлень: 1262

2014-08-13 22:14  
ruba015 написано:
Побільше б таких фільмів з частотою 60fps

Так долучайтесь Wink (1) І буде більше.

ruba015 
Новенький


З нами з: 15.03.13
Востаннє: 22.11.16
Повідомлень: 23

2014-08-13 22:19  
Drool написано:
Так долучайтесь

а як, що для цього треба ? як шукати такі фільми ?

Drool 
VIP


З нами з: 17.04.10
Востаннє: 02.12.16
Повідомлень: 1262

2014-08-13 23:50  
ruba015 написано:
а як, що для цього треба ? як шукати такі фільми ?

Вийти на з'язок? Координати в приваті.

x-zik 
Новенький


З нами з: 20.03.10
Востаннє: 30.11.16
Повідомлень: 14

2014-08-16 20:18  
Хороша якість. Порівнював з 1080 - там чіткості більше але динамічні сцени менш плавні. Ідеально було б 1080 і 60 кадрів. Сподіваюся така якість з'явиться. Також я погоджуюсь з ruba015. Місцями й справді 3D нагадує. Але для мене це навіть кращий варіант бо я не люблю 3D. По-перше, треба сидіти в окулярах, по-друге, дуже мало сцен у фільм дійсно виглядають об'ємними, по-третє, дещо втрачається якість картинки.
Drool 
VIP


З нами з: 17.04.10
Востаннє: 02.12.16
Повідомлень: 1262

2014-08-19 02:24  
x-zik написано:
Ідеально було б 1080 і 60 кадрів

Ну то долучайтесь Wink (1) Шукайте такий відеоряд, прикручуйте звукову доріжку.

Ваш часовий пояс: GMT + 2 Години

Нова тема   Відповісти