Завантажити та скачати торренти українською


Тихоокеанський рубіж / Pacific Rim (2013) 720p-mini [60fps]

Нові коментарі

Нова тема   Відповісти
Автор Повідомлення
Drool 
VIP


З нами з: 17.04.10
Востаннє: 02.12.16
Повідомлень: 1262

2014-08-07 09:55  
Тихоокеанський рубіж / Pacific Rim (2013) 720p-mini [60fps]

Жанр: бойовик, пригодницький, фантастика
Країна: США



Кінокомпанія: Warner Bros., Legendary Pictures
Режисер: Гільєрмо Дель Торо
Актори: Чарлі Ханнем, Ідріс Ельба, Рінко Кікуті, Роберт Казінскі, Макс Мартіні, Чарлі Дей, Берн Ґорман, Кліфтон Коллінз мол., Рон Перлман, Дієго Клаттенхофф

Сюжет:
Коли з морських глибин піднялися легіони чудовиськ, відомих як Кайдзу, почалася війна, якій судилося забрати мільйони життів і звести «людські ресурси» майже до нуля всього за кілька років. Щоб битися з прибульцями, було створено спеціальну зброю: величезні роботи, названі Джегерами, які керувалися одночасно двома пілотами. Але навіть Джегери виявляються майже безсилі перед могутніми Кайдзу.
На межі поразки захисники людства звертаються до двох вельми сумнівних героїв - колишнього пілота і недосвідченого стажиста - які мають об'єднатися, щоб повести в бій єдиного уцілівшого Джегера.


Тривалість: 02:11:17
Якість: 720p-mini
Відео:
кодек:
розмір кадру: 1280x720
бітрейт: 6904 кб/с
частота кадрів: 59.940 кадрів/с

Аудіо:
мова: українська
переклад: професійний дубльований
кодек: 5.1
бітрейт: 640 кб/с

Джерело озвучення:


Субтитри:
мова: українська (форсовані)
тип: програмні (м'які)
формат: *.srt
MediaInfo
General
Unique ID : 167257528452844201437083518040040335022 (0x7DD4A0D4CE311F2B08A3EED5FA44E6AE)
Complete name : /mnt/disk_d/Video/Pacific.Rim.2013.Ukr.Dub..720p-mini.60fps.mkv
Format : Matroska
Format version : Version 4 / Version 2
File size : 7.07 GiB
Duration : 2h 11mn
Overall bit rate : 7 709 Kbps
Movie name : Тихоокеанський рубіж / Pacific Rim (2013) 720p-mini [60 FPS] | video by EXCLUSIF
Encoded date : UTC 2010-02-22 21:41:31
Writing application : mkvmerge v6.1.0 ('Old Devil') built on Apr 14 2013 12:25:55
Writing library : libebml v1.3.0 + libmatroska v1.4.0

Video
ID : 1
Format : AVC
Format/Info : Advanced Video Codec
Format profile : [email protected]
Format settings, CABAC : Yes
Format settings, ReFrames : 8 frames
Codec ID : V_MPEG4/ISO/AVC
Duration : 2h 11mn
Bit rate : 6 916 Kbps
Width : 1 280 pixels
Height : 720 pixels
Display aspect ratio : 16:9
Frame rate : 59.940 fps
Color space : YUV
Chroma subsampling : 4:2:0
Bit depth : 8 bits
Scan type : Progressive
Bits/(Pixel*Frame) : 0.125
Stream size : 6.34 GiB (90%)
Title : Тихоокеанський рубіж / Pacific Rim (2013) 720p-mini [60 FPS] | video by EXCLUSIF
Writing library : core 138 r2358 9e941d1
Encoding settings : cabac=1 / ref=8 / deblock=1:-3:-2 / analyse=0x3:0x133 / me=umh / subme=9 / psy=1 / psy_rd=1.00:0.00 / mixed_ref=1 / me_range=24 / chroma_me=1 / trellis=2 / 8x8dct=1 / cqm=0 / deadzone=21,11 / fast_pskip=0 / chroma_qp_offset=-2 / threads=6 / lookahead_threads=1 / sliced_threads=0 / nr=0 / decimate=0 / interlaced=0 / bluray_compat=0 / constrained_intra=0 / bframes=5 / b_pyramid=2 / b_adapt=2 / b_bias=0 / direct=3 / weightb=1 / open_gop=0 / weightp=2 / keyint=599 / keyint_min=59 / scenecut=40 / intra_refresh=0 / rc_lookahead=60 / rc=crf / mbtree=1 / crf=18.0 / qcomp=0.60 / qpmin=0 / qpmax=69 / qpstep=4 / ip_ratio=1.40 / aq=1:1.00
Default : Yes
Forced : No

Audio
ID : 2
Format : AC-3
Format/Info : Audio Coding 3
Mode extension : CM (complete main)
Codec ID : A_AC3
Duration : 2h 11mn
Bit rate mode : Constant
Bit rate : 640 Kbps
Channel(s) : 6 channels
Channel positions : Front: L C R, Side: L R, LFE
Sampling rate : 48.0 KHz
Bit depth : 16 bits
Compression mode : Lossy
Stream size : 601 MiB (8%)
Title : Рідна мова ( 5.1 @ 640 kbps)
Language : Ukrainian
Default : Yes
Forced : Yes

Text
ID : 3
Format : UTF-8
Codec ID : S_TEXT/UTF8
Codec ID/Info : UTF-8 Plain Text
Title : Forced
Language : Ukrainian
Default : Yes
Forced : Yes
Скріншоти







Джерело:
Особиста оцінка: 10 - без зайвих вагань рекомендую всім!


 Трекер:    Зареєстрований   

Завантажити / скачати фільм українською



відео для новачків



 Зареєстрований:   2014-08-07 13:27
 Розмір:   7.07 GB 
 Оцінка фільму:   9.4/10 (Голосів: 17)
   
bot 
робот


З нами з: 30.09.07
Востаннє: 26.05.05
Повідомлень: 15965

2014-08-07 09:55  
Тему перенесено з Фільми в HD до форуму Анонси релізів


Drool

wolverine 
VIP


З нами з: 26.09.09
Востаннє: 02.12.16
Повідомлень: 320

2014-08-07 10:06  
Круто. Чекаю з нетерпінням на реліз.
bot 
робот


З нами з: 30.09.07
Востаннє: 26.05.05
Повідомлень: 15965

2014-08-07 13:27  
Тему перенесено з Анонси релізів до форуму Фільми в HD


Drool

Estranded 
VIP


З нами з: 09.02.14
Востаннє: 02.12.16
Повідомлень: 835

2014-08-07 15:31  
зробіть такий реліз для "першого месника: друга війна" та "вовк з волл-стріт", будь ласка.
Drool 
VIP


З нами з: 17.04.10
Востаннє: 02.12.16
Повідомлень: 1262

2014-08-07 16:16  
Estranded написано:
зробіть такий реліз для "першого месника: друга війна" та "вовк з волл-стріт", будь ласка.
Якщо зустріну такий відеоряд.
FreeGuest 
VIP


З нами з: 12.01.12
Востаннє: 01.12.16
Повідомлень: 271

2014-08-07 17:09  
Скажіть будь-ласка можете Людину зі сталі зробити з таким відеорядом 60fps? Буду дуже вдячний.
Drool 
VIP


З нами з: 17.04.10
Востаннє: 02.12.16
Повідомлень: 1262

2014-08-07 17:58  
FreeGuest написано:
Скажіть будь-ласка можете Людину зі сталі зробити з таким відеорядом 60fps? Буду дуже вдячний.
Є відеоряд до 2-ї частини, але дуже криворукий ріп, страшенні артефакти та "пливуни":
crhsyijn
Якісні ріпи в 60fps робить релізер NNNB на руторі. Достатньо там в пошуку ввести його нік - будуть знайдені його роботи. Десь там повинно бути посилання - він приймає замовлення. Можна замовити ріп (російськомовний), а доріжку прикрутити - то пара хвилин.

Estranded 
VIP


З нами з: 09.02.14
Востаннє: 02.12.16
Повідомлень: 835

2014-08-08 12:29  
Drool написано:
Якщо зустріну такий відеоряд.


Можна будь-який HD, аби був з 60fps.

Drool 
VIP


З нами з: 17.04.10
Востаннє: 02.12.16
Повідомлень: 1262

2014-08-08 14:37  
Estranded написано:
Можна будь-який HD, аби був з 60fps.

1. http://toloka.to/t58295
2. Пошук по толоці по слову "fps" дає не нульовий результат Wink (1)

WalterRay 
Новенький


З нами з: 05.08.13
Востаннє: 20.11.16
Повідомлень: 15

2015-03-13 20:58  
Drool написано:
Можна замовити ріп (російськомовний), а доріжку прикрутити - то пара хвилин.

А де доріржки брати?
На Толоці їх щось замало, особливо до нових фільмів.

Drool 
VIP


З нами з: 17.04.10
Востаннє: 02.12.16
Повідомлень: 1262

2015-03-15 22:34  
WalterRay написано:
А де доріржки брати?
На Толоці їх щось замало, особливо до нових фільмів.

Та тут і брати. Де ж ще. З тих, які є...

Ваш часовий пояс: GMT + 2 Години

Нова тема   Відповісти