Завантажити та скачати торренти українською


Перший месник: Друга вiйна / Captain America: The Winter Soldier (2014) 720p-mini

Нові коментарі

Нова тема   Відповісти
Автор Повідомлення
Drool 
VIP


З нами з: 17.04.10
Востаннє: 10.12.16
Повідомлень: 1270

2014-08-03 11:55  
Перший месник: Друга вiйна / Captain America: The Winter Soldier (2014) 720p-mini

Жанр: екшн, пригодницький, фантастика
Країна: США



Кінокомпанія: Marvel Entertainment, Marvel Studios, Perception
Режисер: Ентоні Руссо, Джо Руссо
Актори: Кріс Еванс, Скарлет Йоганссон, Роберт Редфорд, Семюель Л. Джексон, Себастьян Стен, Ентоні Макі, Кобі Смолдерс, Френк Ґрілло, Максиміліано Ернандес, Емілі ВанКемп

Сюжет:
Після безпрецедентних подій, які вперше зібрали разом команду Месників, Стів Роджерс, відомий як Капітан Америка, осідає у Вашинґтоні і намагається пристосуватися до життя в сучасному світі. Але спокій герою тільки сниться - намагаючись допомогти колезі з агентства Щ. И. Т, Стів опиняється у центрі подій, які загрожують катастрофою світового масштабу. Для того, щоб викрити злочинну змову, Капітан Америка об'єднується з Чорною вдовою і з новим соратником, відомим як Яструб. Проте ніхто з них навіть не підозрює, на що здатний новий ворог.


Тривалість: 02:15:54
Якість: 720p-mini
Відео:
кодек:
розмір кадру: 1280x534
бітрейт: 2602 кб/с

Аудіо:
мова: українська
переклад: професійний дубльований
кодек: 5.1
бітрейт: 384 кб/с
Інформація про дубляж

Переклад: Олекса Негребецький
Режисер дубляжу: Костянтин Лінартович
Ролі дублювали: Стів Роджерс - Дмитро Лінартович, Нік Ф'юрі - Олександр Шевчук, Наташа Романофф - Наталя Романько-Кисельова, Пілот - Михайло Войчук, Зола - Ігор Щербак, Пеґґі - Катерина Качан, Бакі - Юрій Кудрявець, Рамлоу - Кирило Нікітенко, Сем - Володимир Паляниця, Гілл - Юлія Перенчук, Сітвел - Володимир Кокотунов, Александр Пірс - Володимир Нечепоренко, Рената Гоулі - Людмила Суслова, Інструктор - Роман Чупіс, Роквел - Юрій Висоцький, Стерн - Валерій Невєдров, Членком - Анатолій Зіновенко, Старківець - Дмитро Вікулов, Штрукер - Ігор Волков, Лікарка - Наталя Лук'янець, Шерон - Катерина Брайковська, Дівчинка 1 - Галина Дубок, Дівчинка 2 - Софія Ісміндірова, Науковець - Анатолій Пашнін, Сінґх, ФБРівець - Олексій Радько, Анатолій Барчук, Олексій Череватенко, Юрій Сосков, Дмитро Сова, Сергій Солопай, Андрій Соболєв, В'ячеслав Дудко, Катерина Башкіна-Зленко, Марія Єременко, Олена Борозенець, Андрій Альохін та інші.

Фільм дубльовано студією LeDoyen.
Субтитри:
мова: українська (форсовані)
тип: програмні (м'які)
формат: *.srt
MediaInfo
General
Unique ID : 297954751422129456001454644353699719009 (0xE027FF6EBF8A231C8CA4DEF406CCA761)
Complete name : /home/drool/Рабочий стол/Films/Captain.America.The.Winter.Soldier.2014.Ukr.Dub-iTunes..720p-mini.mkv
Format : Matroska
Format version : Version 4 / Version 2
File size : 2.89 GiB
Duration : 2h 15mn
Overall bit rate : 3 043 Kbps
Movie name : Перший месник: Друга вiйна / Captain America: The Winter Soldier (2014) 720p-mini | -=Leonardo=-
Encoded date : UTC 2010-02-22 21:41:31
Writing application : mkvmerge v6.1.0 ('Old Devil') built on Apr 14 2013 12:26:22
Writing library : libebml v1.3.0 + libmatroska v1.4.0
Attachment : Yes / Yes

Video
ID : 1
Format : AVC
Format/Info : Advanced Video Codec
Format profile : [email protected]
Format settings, CABAC : Yes
Format settings, ReFrames : 12 frames
Codec ID : V_MPEG4/ISO/AVC
Duration : 2h 15mn
Bit rate : 2 598 Kbps
Width : 1 280 pixels
Height : 534 pixels
Display aspect ratio : 2.40:1
Frame rate : 23.976 fps
Color space : YUV
Chroma subsampling : 4:2:0
Bit depth : 8 bits
Scan type : Progressive
Bits/(Pixel*Frame) : 0.159
Stream size : 2.47 GiB (85%)
Title : Перший месник: Друга вiйна / Captain America: The Winter Soldier (2014) 720p-mini | -=Leonardo=-
Writing library : core 125 r2208 d9d2288
Encoding settings : cabac=1 / ref=12 / deblock=1:-1:-1 / analyse=0x3:0x133 / me=umh / subme=11 / psy=1 / psy_rd=0.90:0.00 / mixed_ref=1 / me_range=32 / chroma_me=1 / trellis=2 / 8x8dct=1 / cqm=0 / deadzone=21,11 / fast_pskip=0 / chroma_qp_offset=-2 / threads=12 / lookahead_threads=2 / sliced_threads=0 / nr=0 / decimate=1 / interlaced=0 / bluray_compat=0 / constrained_intra=0 / bframes=8 / b_pyramid=2 / b_adapt=2 / b_bias=0 / direct=1 / weightb=1 / open_gop=0 / weightp=2 / keyint=250 / keyint_min=23 / scenecut=40 / intra_refresh=0 / rc=crf / mbtree=0 / crf=19.0 / qcomp=0.60 / qpmin=0 / qpmax=69 / qpstep=4 / ip_ratio=1.10 / pb_ratio=1.10 / aq=1:1.00
Default : Yes
Forced : No

Audio
ID : 2
Format : AC-3
Format/Info : Audio Coding 3
Mode extension : CM (complete main)
Codec ID : A_AC3
Duration : 2h 15mn
Bit rate mode : Constant
Bit rate : 384 Kbps
Channel(s) : 6 channels
Channel positions : Front: L C R, Side: L R, LFE
Sampling rate : 48.0 KHz
Bit depth : 16 bits
Compression mode : Lossy
Stream size : 373 MiB (13%)
Title : Рідна мова ( 5.1, 48000 Hz, 384 kb/s) iTunes
Language : Ukrainian
Default : Yes
Forced : Yes

Text
ID : 3
Format : UTF-8
Codec ID : S_TEXT/UTF8
Codec ID/Info : UTF-8 Plain Text
Title : Українські (форсовані)
Language : Ukrainian
Default : Yes
Forced : Yes
Скріншоти



Джерело:
Особиста оцінка: 8 - мені сподобалося
*Доріжку з itunes придбано за кошт karvai0


 Трекер:    Зареєстрований   

Завантажити / скачати фільм українською



відео для новачків



 Зареєстрований:   2014-08-17 12:04
 Розмір:   2.89 GB 
 Оцінка фільму:   9.7/10 (Голосів: 44)
   
nazikys 
Новенький


З нами з: 03.10.09
Востаннє: 08.12.16
Повідомлень: 10

2014-08-03 22:29  
качаєм, класний реліз!!!!
Космодесантник 
Новенький


З нами з: 28.02.14
Востаннє: 10.12.16
Повідомлень: 24

2014-08-09 20:10  
Сцена після титрів українською?
Drool 
VIP


З нами з: 17.04.10
Востаннє: 10.12.16
Повідомлень: 1270

2014-08-10 22:22  
Космодесантник написано:
Сцена після титрів українською?

Ні. Може в ліцензії буде перекладено.

Drool 
VIP


З нами з: 17.04.10
Востаннє: 10.12.16
Повідомлень: 1270

2014-08-16 10:08  
Буде заміна доріжки на 5.1 з iTunes.
Харків"янин 
Свій


З нами з: 11.12.13
Востаннє: 17.09.16
Повідомлень: 142

2014-08-17 07:13  
Завчасно вибачаюсь за лайку.

Який довбодятел перекладає назви фільмів???

NeetScrool 
Відео Гуртом - фільмокрай
Відео Гуртом - фільмокрай


З нами з: 10.01.13
Востаннє: 10.12.16
Повідомлень: 2228

2014-08-17 10:33  
Харків"янин написано:
Який довбодятел перекладає назви фільмів???

мейджор – Paramount Pictures.
Дистриб'ютор: B&H

Ваш часовий пояс: GMT + 2 Години

Нова тема   Відповісти