Завантажити та скачати торренти українською


Хаос / Chaos (2005) 720p Ukr/Eng | sub Eng

Нові коментарі

Нова тема   Відповісти
Автор Повідомлення
braveboy 
Відео Гуртом - команда HD
Відео Гуртом - команда HD


З нами з: 15.06.10
Востаннє: 29.10.16
Повідомлень: 958

2014-08-01 02:24  

Хаос / Chaos (2005) 720p Ukr/Eng | sub Eng


Хаос / Chaos (2005) 720p Ukr/Eng | sub Eng


Жанр: екшн, кримінальний, драма, трилер
Країна: Канада, Великобританія, США



Кінокомпанія: Mobius International, Chaotic Productions, Chaotic Films
Режисер: Тоні Гігліо
Актори: Джейсон Стетхем, Раян Філліп, Веслі Снайпс, Генрі Черні, Джастін Водделл, Ніколас Ліа, Джессіка Стін, Роб ЛаБелль, Джон Кассіні, Деймон Джонсон

Сюжет:
Звичайнісіньким ранком банда грабіжників захоплює банк і бере в заручники всіх, хто в ньому знаходиться. Вожак банди Лоренц вимагає викликати переговірника, наполягаючи на тому, що ним може бути тільки детектив Коннерс. А так як Коннерс в міліції «на поганому рахунку», - до нього приставляють напарника - новачка Деккера.
Доки Коннерс веде переговори, в банк вривається спецназ. В цьому хаосі грабіжникам вдається втекти з банку поміж заручниками. Але найцікавішим виявилось те, що грабіжники не винесли з собою ні єдиного цента. А невдовзі виясняється, що під час облоги і перестрілки з банківських рахунків комп'ютерним шляхом був знятий мільярд доларів. Двоє детективів повинні зловити п'ятірку грабіжників банку, розв'язуючи загадку їхньої змови по ниточках, що ведуть на самий «верх»...



Тривалість: 01:46:21
Якість: 720p
Відео:
кодек:
розмір кадру: 1280 х 540
бітрейт: 6480 кб/с

Аудіо # 1:
мова: українська
переклад: багатоголосий закадровий
кодек: 5.1
бітрейт: 640 кб/с

Аудіо # 2:
мова: англійська
переклад: оригінал
кодек: 5.1
бітрейт: 1509 кб/с

Джерело озвучення:

Субтитри:
мова: англійська
тип: програмні (м'які)
формат: *.srt

Подяка за доріжку JACKUS
MediaInfo
Video
ID : 1
Format : AVC
Format/Info : Advanced Video Codec
Format profile : [email protected]
Format settings, CABAC : Yes
Format settings, ReFrames : 9 frames
Codec ID : V_MPEG4/ISO/AVC
Duration : 1h 46mn
Bit rate : 6 480 Kbps
Width : 1 280 pixels
Height : 540 pixels
Display aspect ratio : 2.40:1
Frame rate mode : Constant
Frame rate : 23.976 fps
Color space : YUV
Chroma subsampling : 4:2:0
Bit depth : 8 bits
Scan type : Progressive
Bits/(Pixel*Frame) : 0.391
Stream size : 4.69 GiB (73%)
Title : Chaos (2005) 720p
Writing library : core 68 r1195M 5d75a9b
Encoding settings : cabac=1 / ref=9 / deblock=1:-3:-3 / analyse=0x3:0x113 / me=umh / subme=10 / psy_rd=1.1:0.1 / mixed_ref=1 / me_range=64 / chroma_me=1 / trellis=2 / 8x8dct=1 / cqm=0 / deadzone=21,11 / chroma_qp_offset=-3 / threads=6 / nr=0 / decimate=0 / mbaff=0 / bframes=5 / b_pyramid=1 / b_adapt=2 / b_bias=0 / direct=3 / wpredb=1 / keyint=250 / keyint_min=25 / scenecut=40 / rc=2pass / bitrate=6480 / ratetol=1.0 / qcomp=0.60 / qpmin=10 / qpmax=51 / qpstep=4 / cplxblur=20.0 / qblur=0.5 / ip_ratio=1.40 / pb_ratio=1.30 / aq=1:0.70
Language : English
Default : Yes
Forced : No
DURATION : 01:46:21.208000000
NUMBER_OF_FRAMES : 152996
NUMBER_OF_BYTES : 5168770196
_STATISTICS_WRITING_APP : mkvmerge v7.1.0 ('Good Love') 64bit built on Jul 27 2014 13:06:55
_STATISTICS_WRITING_DATE_UTC : 2014-07-31 03:01:49
_STATISTICS_TAGS : BPS DURATION NUMBER_OF_FRAMES NUMBER_OF_BYTES

Audio #1
ID : 2
Format : AC-3
Format/Info : Audio Coding 3
Mode extension : CM (complete main)
Format settings, Endianness : Big
Codec ID : A_AC3
Duration : 1h 46mn
Bit rate mode : Constant
Bit rate : 640 Kbps
Channel(s) : 6 channels
Channel positions : Front: L C R, Side: L R, LFE
Sampling rate : 48.0 KHz
Bit depth : 16 bits
Compression mode : Lossy
Stream size : 489 MiB (7%)
Title : 5.1 @ 640 kbps
Language : Ukrainian
Default : Yes
Forced : No

Audio #2
ID : 3
Format :
Format/Info : Digital Theater Systems
Mode : 16
Format settings, Endianness : Big
Codec ID : A_DTS
Duration : 1h 46mn
Bit rate mode : Constant
Bit rate : 1 509 Kbps
Channel(s) : 6 channels
Channel positions : Front: L C R, Side: L R, LFE
Sampling rate : 48.0 KHz
Bit depth : 24 bits
Compression mode : Lossy
Stream size : 1.13 GiB (18%)
Title : 5.1 @ 1536 kbps
Language : English
Default : No
Forced : No

Text #1
ID : 4
Format : ASS
Codec ID : S_TEXT/ASS
Codec ID/Info : Advanced Sub Station Alpha
Compression mode : Lossless
Language : English
Default : No
Forced : No

Text #2
ID : 5
Format : ASS
Codec ID : S_TEXT/ASS
Codec ID/Info : Advanced Sub Station Alpha
Compression mode : Lossless
Title : SDH
Language : English
Default : No
Forced : No
Скріншоти



Особиста оцінка: 9 - давно не бачив настільки якісне кіно


 Трекер:    Зареєстрований   

Завантажити / скачати фільм українською



відео для новачків



 Зареєстрований:   2014-08-01 02:26
 Розмір:   6.42 GB 
 Оцінка фільму:   10/10 (Голосів: 7)
   
Інші релізи
   Хаос / Chaos (2005) Ukr/Eng | sub Eng JACKUS  2 / 0   2.18 GB   2014-07-28 23:42 
   Хаос / Chaos (2005) TPEM  0 / 0   887 MB   2010-01-15 00:46 
kysel 
Частий відвідувач


З нами з: 28.06.12
Востаннє: 07.12.16
Повідомлень: 29

2014-08-16 21:50  
А хто українською озвучив?
tribus 
VIP


З нами з: 22.10.14
Востаннє: 08.12.16
Повідомлень: 557

2016-12-02 00:39  

Роздачу відновлено!


Повернуто з ex.ua.

Ваш часовий пояс: GMT + 2 Години

Нова тема   Відповісти