Завантажити та скачати торренти українською


Безодня - Радіохулігани (2014) [FLAC] | Alternative

Нові коментарі

Нова тема   Відповісти
Автор Повідомлення
ssTAss 
Модератор музики


З нами з: 05.07.08
Востаннє: 05.12.16
Повідомлень: 10939

2014-07-30 23:40  
Безодня - Радіохулігани (2014) [FLAC] | Alternative

Безодня - Радіохулігани (2014) [FLAC] | Alternative


Стиль: Alternative
Країна, місто: Україна, Хмельницький
Видавець: BOG DA NOVA MUZYKA
Виконавці:
Банашко Олександр - Вокал, гітара
Тимченко Микола - Бас
Домбровський Вова - Барабани
Сергій Костюк - Гітара
Пісні:
    1. Д'Артаньян
    2. Кашемір
    3. Оберігаю
    4. Сонце
    5. Відсутність мрій (сингл)
    6. Аромати (сингл, feat. Олексій Ярош)
    7. Прийди таким
    8. Хтось з неба
    9. Радіохулігани
    10. Живи (сингл)
    11. Все зле я вбив (сингл)
    12. Повернись
log
Exact Audio Copy V0.99 prebeta 5 from 4. May 2009

EAC extraction logfile from 29. July 2014, 22:20

Безодня / Радіохулігани

Used drive : HL-DT-STDVD-RAM GH22NP20 Adapter: 0 ID: 0

Read mode : Secure
Utilize accurate stream : Yes
Defeat audio cache : Yes
Make use of C2 pointers : No

Read offset correction : 102
Overread into Lead-In and Lead-Out : No
Fill up missing offset samples with silence : Yes
Delete leading and trailing silent blocks : No
Null samples used in CRC calculations : Yes
Used interface : Installed external ASPI interface

Used output format : User Defined Encoder
Selected bitrate : 128 kBit/s
Quality : High
Add ID3 tag : No
Command line compressor : C:\Program Files\FLAC\flac.exe
Additional command line options : - T "DATE=%y" - T "GENRE=%m" - 8 - V %s

TOC of the extracted CD

Track | Start | Length | Start sector | End sector
---------------------------------------------------------
1 | 0:00.00 | 3:52.52 | 0 | 17451
2 | 3:52.52 | 3:47.56 | 17452 | 34532
3 | 7:40.33 | 4:43.57 | 34533 | 55814
4 | 12:24.15 | 4:09.19 | 55815 | 74508
5 | 16:33.34 | 4:41.43 | 74509 | 95626
6 | 21:15.02 | 2:54.32 | 95627 | 108708
7 | 24:09.34 | 5:20.00 | 108709 | 132708
8 | 29:29.34 | 4:38.13 | 132709 | 153571
9 | 34:07.47 | 4:14.60 | 153572 | 172681
10 | 38:22.32 | 4:00.00 | 172682 | 190681
11 | 42:22.32 | 3:26.00 | 190682 | 206131
12 | 45:48.32 | 4:38.46 | 206132 | 227027

Range status and errors

Selected range

Filename W:\МУЗИКА\українські пісні\Безодня\Безодня - Радіохулігани (2014) [FLAC]\Безодня - Радіохулігани.wav

Peak level 100.0 %
Range quality 100.0 %
Test CRC F477C1C7
Copy CRC F477C1C7
Copy OK

No errors occurred

End of status report
fooCDtect
fooCDtect - foobar2000 + auCDtect, baralgin.

auCDtect: CD records authenticity detector, version 0.8.2
Copyright (c) 2004 Oleg Berngardt. All rights reserved.
Copyright (c) 2004 Alexander Djourik. All rights reserved.

mode: 0

===========================================
Track: 01 - Д'артаньян
Quality: CDDA 100%
===========================================
Track: 02 - Кашемір
Quality: CDDA 100%
===========================================
Track: 03 - Оберігаю
Quality: CDDA 99%
===========================================
Track: 04 - Сонце
Quality: CDDA 100%
===========================================
Track: 05 - Відсутність мрій
Quality: CDDA 100%
===========================================
Track: 06 - Аромати
Quality: CDDA 100%
===========================================
Track: 07 - Прийди таким
Quality: CDDA 100%
===========================================
Track: 08 - Хтось з неба
Quality: CDDA 100%
===========================================
Track: 09 - Радіохулігани
Quality: CDDA 100%
===========================================
Track: 10 - Живи
Quality: CDDA 100%
===========================================
Track: 11 - Все зле я вбив
Quality: CDDA 100%
===========================================
Track: 12 - Повернись
Quality: CDDA 100%
===========================================
Тривалість: 00:50:27
Мова: українська
Аудіо-кодек: FLAC
Бітрейт: 1010 кб/с
Джерело: ріп 10alexs
Додаткова інформація:
Минуло шість довгих років з моменту презентації дебютного альбому хмельницького гурту «Безодня» і от, нарешті, світ побачив другий диск музикантів під назвою «Радіохулігани».
Пісні мають досить різну тематику, та в основному вони закликають перестати бути байдужими та безкорисними, адекватно розуміти, хто ти насправді є та робити все для успішного і щасливого майбуття. Олександр розповідав, що під час написання текстів, він часом навіть не до кінця розуміє їхній меседж – просто відчуває, що текст має бути саме таким, а вже через деякий час відзначає для себе глибинні ідеї


Якщо Ви справді бажаєте підтримати українське - після прослуховування, якщо музика вам сподобалась,
придбайте ліцензійний диск.
Підтримаймо вітчизняних виконавців!


Срібний реліз (на рейтинг впливає 50% завантаженого)
 Трекер:    Зареєстрований   

Завантажити / скачати українську музику



відео для новачків



 Зареєстрований:   2014-07-30 23:46
 Розмір:   365 MB 
 Оцінка музики:   7.5/10 (Голосів: 11)
   
ssTAss 
Модератор музики


З нами з: 05.07.08
Востаннє: 05.12.16
Повідомлень: 10939

2014-07-30 23:49  
Ваш часовий пояс: GMT + 2 Години

Нова тема   Відповісти