Завантажити та скачати торренти українською


Жінка в червоному / The Woman in Red (1984) 720р Ukr/Eng | Sub Eng/Gre

Нові коментарі

Нова тема   Відповісти
Автор Повідомлення
corega 
Новенький


З нами з: 15.10.08
Востаннє: 29.11.16
Повідомлень: 14

2014-07-27 13:20  


Жанр: комедія, романтичний
Країна: США



Кіностудія / кінокомпанія: Orion Pictures Corporation
Режисер: Джин Вайлдер
Актори: Джин Вайлдер, Чарльз Гродін, Джозеф Болоніа, Джудіт Айві, Майкл Хадлстон, Келлі Лє Брок, Джільда Реднер, Кайл Ті Геффнер

Сюжет:
Одного разу Тедді опиняється в одних трусах на карнизі за вікном красуневої спальні під прицілом камер телебачення. Як він опинився в цій безґлуздій ситуації? Усьому винувата карколомна красуня Шарлотта, жінка в червоній сукні. У Тедді Пірса, є все що потрібно для щасливого життя - мила дружина, діти, гарна робота.

Усе б добре, але він відчайдушно нудьгує й переживає кризу середнього віку. Побачивши запаморочливу красуню в червоній сукні, що розвивається, він шалено закохується в неї і тепер єдина мета його життя - залізти в її ліжко. Увесь свій вільний час він таємно переслідує предмет своєї пристрасті, намагаючись в будь-що здійснити задумане.

Його друзі вдаються до всіляких дій, аби прикрити його. Від втілення заповітного бажання відділяє лише одна мить, проте...

Тривалість: 01:22:58
Якість:
Відео:
кодек:
розмір кадру: 1280x694
бітрейт: 7630 кб/с

Аудіо # 1:
мова: українська
переклад: двоголосий закадровий
кодек: 2.0
бітрейт: 192 кб/с

Переклад і озвучення виконано: 1+1

Аудіо # 2:
мова: англійська
переклад: оригінал
кодек: 2.0
бітрейт: 192 кб/с

Субтитри # 1:
мова: англійська
тип: програмні (м'які)
формат: *.srt

Субтитри # 2:
мова: грецька
тип: програмні (м'які)
формат: *.srt
MediaInfo
General
Unique ID : 180839410142916594491438306823032877500 (0x880C674C8F41F46181C76FA9998D31BC)
Complete name : E:\The Woman in Red (1984) [Ukr, Eng] [Sub Eng, Gre] 720p [Hurtom] by ad3wal3.mkv
Format : Matroska
Format version : Version 4 / Version 2
File size : 4.74 GiB
Duration : 1h 22mn
Overall bit rate : 8 177 Kbps
Encoded date : UTC 2014-07-27 08:37:09
Writing application : mkvmerge v7.0.0 ('Where We Going') 32bit built on Jun 9 2014 15:08:34
Writing library : libebml v1.3.0 + libmatroska v1.4.1
DURATION : 01:22:58.912000000
NUMBER_OF_FRAMES : 155591
NUMBER_OF_BYTES : 119493888
_STATISTICS_WRITING_APP : mkvmerge v7.0.0 ('Where We Going') 32bit built on Jun 9 2014 15:08:34
_STATISTICS_WRITING_DATE_UTC : 2014-07-27 08:37:09
_STATISTICS_TAGS : BPS DURATION NUMBER_OF_FRAMES NUMBER_OF_BYTES

Video
ID : 1
Format : AVC
Format/Info : Advanced Video Codec
Format profile : [email protected]
Format settings, CABAC : Yes
Format settings, ReFrames : 9 frames
Codec ID : V_MPEG4/ISO/AVC
Duration : 1h 22mn
Bit rate : 7 630 Kbps
Width : 1 280 pixels
Height : 694 pixels
Display aspect ratio : 1.85:1
Frame rate mode : Constant
Frame rate : 25.000 fps
Color space : YUV
Chroma subsampling : 4:2:0
Bit depth : 8 bits
Scan type : Progressive
Bits/(Pixel*Frame) : 0.344
Stream size : 4.42 GiB (93%)
Writing library : core 142 r2409+42 04be48a tMod [[email protected] X86_64]
Encoding settings : cabac=1 / ref=9 / deblock=1:-3:-3 / analyse=0x3:0x133 / me=tesa / subme=10 / psy=1 / fade_compensate=0.00 / psy_rd=1.05:0.00 / mixed_ref=1 / me_range=32 / chroma_me=1 / trellis=2 / 8x8dct=1 / cqm=0 / deadzone=21,11 / fast_pskip=0 / chroma_qp_offset=-2 / threads=12 / lookahead_threads=2 / sliced_threads=0 / nr=0 / decimate=1 / interlaced=0 / bluray_compat=0 / constrained_intra=0 / fgo=0 / bframes=7 / b_pyramid=2 / b_adapt=2 / b_bias=0 / direct=3 / weightb=1 / open_gop=0 / weightp=2 / keyint=251 / keyint_min=25 / scenecut=40 / intra_refresh=0 / rc_lookahead=60 / rc=crf / mbtree=0 / crf=17.6000 / qcomp=0.65 / qpmin=0:0:0 / qpmax=69:69:69 / qpstep=4 / vbv_maxrate=50000 / vbv_bufsize=62500 / crf_max=0.0 / nal_hrd=none / filler=0 / ip_ratio=1.30 / pb_ratio=1.20 / aq=4:0.60 / aq-sensitivity=10.00 / aq-factor=1.00:1.00:1.00 / aq2=0 / aq3=0
Language : English
Default : Yes
Forced : No
DURATION : 01:22:58.960000000
NUMBER_OF_FRAMES : 124474
NUMBER_OF_BYTES : 4848614387
_STATISTICS_WRITING_APP : mkvmerge v7.0.0 ('Where We Going') 32bit built on Jun 9 2014 15:08:34
_STATISTICS_WRITING_DATE_UTC : 2014-07-27 08:37:09
_STATISTICS_TAGS : BPS DURATION NUMBER_OF_FRAMES NUMBER_OF_BYTES

Audio #1
ID : 2
Format : AC-3
Format/Info : Audio Coding 3
Mode extension : CM (complete main)
Format settings, Endianness : Big
Codec ID : A_AC3
Duration : 1h 22mn
Bit rate mode : Constant
Bit rate : 192 Kbps
Channel(s) : 2 channels
Channel positions : Front: L R
Sampling rate : 48.0 KHz
Bit depth : 16 bits
Compression mode : Lossy
Stream size : 114 MiB (2%)
Title : 1+1 (DVO)
Language : Ukrainian
Default : No
Forced : No

Audio #2
ID : 3
Format : AC-3
Format/Info : Audio Coding 3
Mode extension : CM (complete main)
Format settings, Endianness : Big
Codec ID : A_AC3
Duration : 1h 22mn
Bit rate mode : Constant
Bit rate : 192 Kbps
Channel(s) : 2 channels
Channel positions : Front: L R
Sampling rate : 48.0 KHz
Bit depth : 16 bits
Compression mode : Lossy
Stream size : 114 MiB (2%)
Title : Original
Language : English
Default : No
Forced : No

Text #1
ID : 4
Format : UTF-8
Codec ID : S_TEXT/UTF8
Codec ID/Info : UTF-8 Plain Text
Title : English
Language : English
Default : No
Forced : No

Text #2
ID : 5
Format : UTF-8
Codec ID : S_TEXT/UTF8
Codec ID/Info : UTF-8 Plain Text
Title : Greek
Language : Greek
Default : No
Forced : No
Скріншоти




Джерело: & DON (Scene)
Подяка:
Пану rooster за надану сиру доріжку.


Срібний реліз (на рейтинг впливає 50% завантаженого)
 Трекер:    Зареєстрований   

Завантажити / скачати фільм українською



відео для новачків



 Зареєстрований:   2014-07-27 13:20
 Розмір:   4.74 GB 
 Оцінка фільму:   9.3/10 (Голосів: 3)
   
Інші релізи
   Жінка в червоному / The Woman in Red (1984) rooster  2 / 0   1.46 GB   2011-02-19 09:41 
wolesj 
VIP


З нами з: 15.07.12
Востаннє: 11.12.16
Повідомлень: 392

2014-07-27 15:21  
Карколомні пригоди через карколомну красуню Wide grin Wide grin Wide grin . Мабуть варто узгодити епітети (неймовірна, надзвичайна). І сукня на жінці може розвіватись, тріпотіти, а не розвиватись.
patriot2305 
Почесний гуртомівець


З нами з: 23.04.11
Востаннє: 11.12.16
Повідомлень: 4145

2014-07-27 16:53  
corega вказуйте хто записував з ТБ та синхронізовував доріжку...
Ваш часовий пояс: GMT + 2 Години

Нова тема   Відповісти