Завантажити та скачати торренти українською


Джек Стронґ / Jack Strong (2014) 720p Ukr/Pol | sub Ukr/Eng/Pol

Нові коментарі

Нова тема   Відповісти
Автор Повідомлення
Ukr Voice Team 
Відео Гуртом - озвучення
Відео Гуртом - озвучення


З нами з: 31.12.13
Востаннє: 11.08.15
Повідомлень: 61

2014-07-22 11:15  
Джек Стронґ / Jack Strong (2014) 720p Ukr/Pol | sub Ukr/Eng/Pol

Джек Стронґ / Jack Strong (2014) 720p Ukr/Pol | sub Ukr/Eng/Pol


Жанр: біографічний, трилер, драма
Країна: Польща



Фільм озвучено в рамках 1-го туру проекту "ФІЛЬМ НА ВИБІР"


Кінокомпанія: Scorpio Studio, Vue Movie Distribution, Orange, Narodowe Centrum Kultury
Режисер: Владислав Пасіковський / Władysław Pasikowski
Актори: Марцін Дороціньський / Marcin Dorociński, Мая Осташевська / Maja Ostaszewska, Патрік Вілсон / Patrick Wilson, Олег Масленніков / Oleg Maslennikov, Дімітрі Білов / Dimitri Bilov, Даґмара Доміньчик / Dagmara Dominczyk, Іренеуш Чоп / Ireneusz Czop, Збіґнев Замаховський / Zbigniew Zamachowski, Мірослав Бака / Mirosław Baka, Кшиштоф Печиньський / Krzysztof Pieczyński, Збіґнєв Стрий / Zbigniew Stryj, Павел Малашиньський / Paweł Małaszyński, Кшиштоф Ґлобіш / Krzysztof Globisz, Кшиштоф Драч / Krzysztof Dracz, Юзеф Павловський / Józef Pawłowski, Пйотр Нерлевський / Piotr Nerlewski, Павел Іваніцький / Paweł Iwanicki, Давід Вурава / David Wurawa, Джефф Баррел / Jeff Burrell

Сюжет:
Розповідь про Ришарда Кукліньського, полковника Війська Польського, який перебуваючи в самому серці комуністичної системи, вирішує один виступити проти СРСР. Переживаючи за долю Польщі, він погоджується на співпрацю з розвідкою США. Він вирішує, що з боку НАТО країні загрожує менша небезпека, ніж зі сторони "братнього" СРСР. З тієї пори його життя і сім’я опиняється під загрозою. А будь-який необережний рух може допровадити до трагедії.


Тривалість: 02:07:43
Якість:
Відео:
кодек:
розмір кадру: 1 280 х 536
бітрейт: 7 109 кб/с

Аудіо # 1:
мова: українська
переклад: двоголосий закадровий | UkrVoiceTeam
кодек: 2.0
бітрейт: 448 кб/с
ролі озвучували: Остап Карвацький та Юлія Девда

Аудіо # 2:
мова: польська, англійська, німецька, російська
переклад: оригінал
кодек: 5.1
бітрейт: 640 кб/с

Джерело озвучення:

Субтитри:
мова: українська
тип: програмні (м'які)
формат: *.srt
переклад: ivan vyrvyvuho
Увага! Синхронізовані українські субтитри під цей можна завантажити тут.

Субтитри:
мова: англійська
тип: програмні (м'які)
формат: *.srt

Субтитри:
мова: польська
тип: програмні (м'які)
формат: *.srt
MediaInfo
General
Unique ID : 236422637229311683744095001947757830793 (0xB1DD57F9E94848C4BE9B7D1373936289)
Complete name : D:\Завантаження\Озвучене\Jack Strong (2014) 720p BluRay [ukr-pol] [sub ukr-pol-eng] [UkrVoiceTeam].mkv
Format : Matroska
Format version : Version 4 / Version 2
File size : 7.46 GiB
Duration : 2h 7mn
Overall bit rate : 8 364 Kbps
Encoded date : UTC 2014-07-22 09:47:23
Writing application : mkvmerge v6.6.0 ('The Edge Of The In Between') built on Dec 1 2013 17:55:00
Writing library : libebml v1.3.0 + libmatroska v1.4.1

Video
ID : 1
Format : AVC
Format/Info : Advanced Video Codec
Format profile : [email protected]
Format settings, CABAC : Yes
Format settings, ReFrames : 12 frames
Codec ID : V_MPEG4/ISO/AVC
Duration : 2h 7mn
Bit rate : 7 109 Kbps
Width : 1 280 pixels
Height : 536 pixels
Display aspect ratio : 2.40:1
Frame rate mode : Constant
Frame rate : 24.000 fps
Color space : YUV
Chroma subsampling : 4:2:0
Bit depth : 8 bits
Scan type : Progressive
Bits/(Pixel*Frame) : 0.432
Stream size : 6.34 GiB (85%)
Title : Jack Strong (2014)
Writing library : core 142 r2431kMod ac76440
Encoding settings : cabac=1 / ref=12 / deblock=1:-3:-3 / analyse=0x3:0x133 / me=umh / subme=10 / psy=1 / fade_compensate=0.00 / psy_rd=1.10:0.00 / mixed_ref=1 / me_range=16 / chroma_me=1 / trellis=2 / 8x8dct=1 / cqm=0 / deadzone=21,11 / fast_pskip=0 / chroma_qp_offset=-2 / threads=6 / lookahead_threads=1 / sliced_threads=0 / nr=0 / decimate=0 / interlaced=0 / bluray_compat=0 / constrained_intra=0 / fgo=0 / bframes=10 / b_pyramid=2 / b_adapt=2 / b_bias=0 / direct=3 / weightb=1 / open_gop=0 / weightp=2 / keyint=250 / keyint_min=24 / scenecut=40 / intra_refresh=0 / rc=crf / mbtree=0 / crf=17.0000 / qcomp=0.70 / qpmin=0 / qpmax=69 / qpstep=4 / ip_ratio=1.20 / pb_ratio=1.10 / aq=1:0.80 / zones=0,3360,crf=14
Language : Polish
Default : No
Forced : No

Audio #1
ID : 2
Format : AC-3
Format/Info : Audio Coding 3
Mode extension : CM (complete main)
Format settings, Endianness : Big
Codec ID : A_AC3
Duration : 2h 7mn
Bit rate mode : Constant
Bit rate : 448 Kbps
Channel(s) : 2 channels
Channel positions : Front: L R
Sampling rate : 48.0 KHz
Bit depth : 16 bits
Compression mode : Lossy
Stream size : 409 MiB (5%)
Title : українська від UkrVoiceTeam
Language : Ukrainian
Default : Yes
Forced : Yes

Audio #2
ID : 3
Format : AC-3
Format/Info : Audio Coding 3
Mode extension : CM (complete main)
Format settings, Endianness : Big
Codec ID : A_AC3
Duration : 2h 7mn
Bit rate mode : Constant
Bit rate : 640 Kbps
Channel(s) : 6 channels
Channel positions : Front: L C R, Side: L R, LFE
Sampling rate : 48.0 KHz
Bit depth : 16 bits
Compression mode : Lossy
Stream size : 585 MiB (8%)
Language : Polish
Default : No
Forced : No

Text #1
ID : 4
Format : UTF-8
Codec ID : S_TEXT/UTF8
Codec ID/Info : UTF-8 Plain Text
Language : Ukrainian
Default : No
Forced : No

Text #2
ID : 5
Format : UTF-8
Codec ID : S_TEXT/UTF8
Codec ID/Info : UTF-8 Plain Text
Language : English
Default : No
Forced : No

Text #3
ID : 6
Format : UTF-8
Codec ID : S_TEXT/UTF8
Codec ID/Info : UTF-8 Plain Text
Language : Polish
Default : No
Forced : No
Скріншоти


Джерело:
Особиста оцінка: 10 - без зайвих вагань рекомендую всім!


Авторський реліз (завантажувати можна без реєстрації)
 Трекер:    Зареєстрований   

Завантажити / скачати фільм українською



відео для новачків



 Зареєстрований:   2014-07-22 15:14
 Розмір:   7.46 GB 
 Оцінка фільму:   9.7/10 (Голосів: 26)
 Jack Strong (2014) 720p BluRay [ukr-pol] [sub ukr-pol-eng] [UkrVoiceTeam]
   
Інші релізи
   Джек Стронґ / Jack Strong (2014) AVC | sub Ukr Ukr Voice Team  0 / 0   2.41 GB   2014-07-22 11:40 
   Джек Стронґ / Jack Strong (2014) | sub Ukr Ukr Voice Team  2 / 0   1.74 GB   2014-07-22 11:32 
   Джек Стронґ / Jack Strong (2014) Pol | Sub Ukr ivan vyrvyvuho  0 / 0   2.42 GB   2014-07-09 17:08 
bot 
робот


З нами з: 30.09.07
Востаннє: 26.05.05
Повідомлень: 16030

2014-07-22 11:15  
Тему перенесено з Фільми в HD до форуму Анонси релізів


Ukr Voice Team

bot 
робот


З нами з: 30.09.07
Востаннє: 26.05.05
Повідомлень: 16030

2014-07-22 15:14  
Тему перенесено з Анонси релізів до форуму Фільми в HD


Ukr Voice Team

silent 
Новенький


З нами з: 15.06.11
Востаннє: 04.12.16
Повідомлень: 15

2015-02-05 16:47  
Варто переглянути! Хороший фільм. Тримає в напруженні від початку і до кінця.
borro 
Новенький


З нами з: 09.01.15
Востаннє: 07.12.16
Повідомлень: 20

2015-10-25 22:36  
дякую!
Ваш часовий пояс: GMT + 2 Години

Нова тема   Відповісти