Завантажити та скачати торренти українською


Багато галасу з нічого / Much Ado About Nothing (2012) 720p Eng | Sub Ukr

Нові коментарі

Нова тема   Відповісти
Останній раз роздавалося antusyrzhuk (2016-12-05)
Автор Повідомлення
antusyrzhuk 
Свій


З нами з: 09.06.09
Востаннє: 19.11.16
Повідомлень: 145

2014-07-20 09:31  
Багато галасу з нічого / Much Ado About Nothing (2012) 720p Eng | Sub Ukr

Багато галасу з нічого / Much Ado About Nothing (2012) 720p Eng | Sub Ukr


Жанр: комедія, драма, романтичний
Країна: США



Кінокомпанія: Bellwether Pictures
Режисер: Джосс Відон (Joss Whedon)
Актори: Емі Екер (Amy Acker), Алексіс Денісоф (Alexis Denisof), Натан Філліон (Nathan Fillion), Кларк Грегг (Clark Gregg), Рід Даймонд (Reed Diamond), Фран Кранц (Fran Kranz), Джилліан Моргезе (Jillian Morgese) та ін.

Сюжет:
Леонато, правителя Мессіни, відвідує його друг Дон Педро, що повертається після успішної кампанії проти свого підступного брата Дона Хуана. Дона Педро супроводжують його благородні воїни – Клавдіо та Бенедикт, у яких зовсім різні погляди на кохання.

Блискуча адаптація Шекспіра.


Тривалість: 01:48:52
Якість:
Відео:
кодек:
розмір кадру: 1280 х 720
бітрейт: 4234 кб/с

Аудіо:
мова: англійська
переклад: оригінал
кодек: 5.1
бітрейт: 1509 кб/с

Субтитри:
мова: українська
тип: програмні (м'які)
формат: *.ass
субтитровано: antusyrzhuk за перекладом Ірини Стешенко
MediaInfo
Format : Matroska
Format version : Version 4 / Version 2
File size : 4.37 GiB
Duration : 1h 48mn
Overall bit rate : 5 741 Kbps
Movie name : Much Ado About Nothing*2012 /antusyrzhuk
Encoded date : UTC 2014-05-19 06:35:43
Writing application : mkvmerge v6.5.0 ('Isn't she lovely') built on Oct 20 2013 12:50:05
Writing library : libebml v1.3.0 + libmatroska v1.4.1

Video
ID : 1
Format : AVC
Format/Info : Advanced Video Codec
Format profile : [email protected]
Format settings, CABAC : Yes
Format settings, ReFrames : 5 frames
Codec ID : V_MPEG4/ISO/AVC
Duration : 1h 48mn
Bit rate : 4 234 Kbps
Width : 1 280 pixels
Height : 720 pixels
Display aspect ratio : 16:9
Frame rate mode : Constant
Frame rate : 23.976 fps
Color space : YUV
Chroma subsampling : 4:2:0
Bit depth : 8 bits
Scan type : Progressive
Bits/(Pixel*Frame) : 0.192
Stream size : 3.13 GiB (72%)
Writing library : core 133 r2334 a3ac64b
Encoding settings : cabac=1 / ref=5 / deblock=1:0:0 / analyse=0x3:0x133 / me=umh / subme=7 / psy=1 / psy_rd=1.00:0.00 / mixed_ref=1 / me_range=16 / chroma_me=1 / trellis=1 / 8x8dct=1 / cqm=0 / deadzone=21,11 / fast_pskip=0 / chroma_qp_offset=-2 / threads=36 / lookahead_threads=5 / sliced_threads=0 / nr=0 / decimate=1 / interlaced=0 / bluray_compat=0 / constrained_intra=0 / bframes=3 / b_pyramid=2 / b_adapt=1 / b_bias=0 / direct=1 / weightb=1 / open_gop=0 / weightp=2 / keyint=250 / keyint_min=23 / scenecut=40 / intra_refresh=0 / rc_lookahead=40 / rc=2pass / mbtree=1 / bitrate=4234 / ratetol=1.0 / qcomp=0.60 / qpmin=0 / qpmax=69 / qpstep=4 / cplxblur=20.0 / qblur=0.5 / ip_ratio=1.40 / aq=1:1.00
Language : English
Default : Yes
Forced : No

Audio
ID : 2
Format :
Format/Info : Digital Theater Systems
Mode : 16
Format settings, Endianness : Big
Codec ID : A_DTS
Duration : 1h 48mn
Bit rate mode : Constant
Bit rate : 1 509 Kbps
Channel(s) : 6 channels
Channel positions : Front: L C R, Side: L R, LFE
Sampling rate : 48.0 KHz
Bit depth : 24 bits
Compression mode : Lossy
Stream size : 1.15 GiB (26%)
Language : English
Default : Yes
Forced : No

Text
ID : 3
Format : ASS
Codec ID : S_TEXT/ASS
Codec ID/Info : Advanced Sub Station Alpha
Compression mode : Lossless
Language : Ukrainian
Default : Yes
Forced : No
Скріншоти



Джерело: &
Особиста оцінка: 10 - без зайвих вагань рекомендую всім!


Золотий реліз (завантажене не впливає на рейтинг)
 Трекер:    Зареєстрований   

Завантажити / скачати фільм українською



відео для новачків



 Зареєстрований:   2014-07-20 09:31
 Розмір:   4.37 GB 
 Оцінка фільму:   10/10 (Голосів: 4)
   
zaika 
VIP


З нами з: 01.07.12
Востаннє: 06.12.16
Повідомлень: 950

2014-08-15 19:50  
Це ж яку неймовірну фантазію потрібно мати, щоб в цих жлобських плебеях, нащадках африканських рабів, ортодоксальних іудеїв та італійських мафіозі побачити самої високої проби знатних шляхтичів та лицарів. Це все одно, що в "урядовцях ДНР" побачити керівництво ЄС. Мені це не дано.
Особисто я з задоволенням читав субтитри antusyrzhuk за перекладом Ірини Стешенко. Отже 10/10 виключно за переклад і субтитри. За фільм 0.

Ваш часовий пояс: GMT + 2 Години

Нова тема   Відповісти