Завантажити та скачати торренти українською


Ной / Noah (2014) 720p-mini Ukr/Eng | sub Ukr/Eng

Нові коментарі

Нова тема   Відповісти
Автор Повідомлення
DеLight 
Відео Гуртом - фільмокрай
Відео Гуртом - фільмокрай


З нами з: 24.08.11
Востаннє: 17.11.16
Повідомлень: 664

2014-07-15 17:27  
Ной / Noah (2014) 720p-mini Ukr/Eng | sub Ukr/Eng


Ной / Noah (2014) 720p-mini Ukr/Eng | sub Ukr/Eng
«The end of the world... is just the beginning»


Жанр: драма, екшн, пригодницький
Країна: США



Кінокомпанія: Paramount Pictures, Regency Enterprises, Protozoa Pictures
Режисер: Даррен Аронофскі / Darren Aronofsky
Актори: Рассел Кроу / Russell Crowe, Дженіфер Коннеллі / Jennifer Connelly, Рей Вінстон / Ray Winstone, Ентоні Гопкінс / Anthony Hopkins, Емма Вотсон / Emma Watson, Лоґан Лерман / Logan Lerman, Даґлас Бут / Douglas Booth, Нік Нолті / Nick Nolte, Кевін Дюранд / Kevin Durand та інші

Сюжет:
І побачив Ной видіння: бачив він велику воду, яка змітала все на своєму шляху, не залишивши ані деревини, ані звірини, ані людини. У світі, занапащеному людським гріхом, Ной отримує Господнє благословення побудувати ковчег. Це історія батька, воїна і рятівника Людства і всього живого на Землі.

Масштабна епічна драма за біблійним сюжетом для найширшої глядацької аудиторії. Фільм за участю найвідоміших зірок, якого вже чекають і обговорюють...


Тривалість: 02:17:53
Якість: 720p-mini

Відео:
кодек:
розмір кадру: 1280 x 694
бітрейт: 2 787 кб/с

Аудіо #1:
мова: українська
переклад: професійний дубльований | LeDoyen Studio
кодек: 2.0
бітрейт: 192 кб/с

Аудіо #2:
мова: англійська
переклад: оригінал
кодек: 5.1
бітрейт: 384 кб/с

Субтитри 1-3:
мова: українська, англійська
тип: програмні (м'які)
формат: *.srt


Трейлер українською


MI
Код:

General
Unique ID                      : 253159421879918949338296404819018352797 (0xBE74BB2B59C9B6A680099FD34275889D)
Complete name                  : D:\Torrents\Noah (2014) 720p-mini [ukr, eng] [Hurtom].mkv
Format                         : Matroska
Format version                 : Version 4 / Version 2
File size                      : 3.24 GiB
Duration                       : 2h 17mn
Overall bit rate               : 3 361 Kbps
Encoded date                   : UTC 2014-07-15 14:57:19
Writing application            : mkvmerge v7.0.0 ('Where We Going') 64bit built on Jun  9 2014 15:16:27
Writing library                : libebml v1.3.0 + libmatroska v1.4.1
DURATION                       : 02:17:53.184000000
NUMBER_OF_FRAMES               : 258537
NUMBER_OF_BYTES                : 397112832
_STATISTICS_WRITING_APP        : mkvmerge v7.0.0 ('Where We Going') 64bit built on Jun  9 2014 15:16:27
_STATISTICS_WRITING_DATE_UTC   : 2014-07-15 14:57:19
_STATISTICS_TAGS               : BPS DURATION NUMBER_OF_FRAMES NUMBER_OF_BYTES

Video
ID                             : 1
Format                         : AVC
Format/Info                    : Advanced Video Codec
Format profile                 : [email protected]
Format settings, CABAC         : Yes
Format settings, ReFrames      : 9 frames
Codec ID                       : V_MPEG4/ISO/AVC
Duration                       : 2h 17mn
Bit rate                       : 2 787 Kbps
Width                          : 1 280 pixels
Height                         : 694 pixels
Display aspect ratio           : 1.85:1
Frame rate mode                : Constant
Frame rate                     : 23.976 fps
Color space                    : YUV
Chroma subsampling             : 4:2:0
Bit depth                      : 8 bits
Scan type                      : Progressive
Bits/(Pixel*Frame)             : 0.131
Stream size                    : 2.62 GiB (81%)
Title                          : Noah (2014) 720p
Writing library                : core 142 r2431 ac76440
Encoding settings              : cabac=1 / ref=9 / deblock=1:-3:-3 / analyse=0x3:0x113 / me=umh / subme=10 / psy=1 / psy_rd=1.00:0.00 / mixed_ref=1 / me_range=16 / chroma_me=1 / trellis=2 / 8x8dct=1 / cqm=0 / deadzone=21,11 / fast_pskip=1 / chroma_qp_offset=-2 / threads=12 / lookahead_threads=1 / sliced_threads=0 / nr=0 / decimate=1 / interlaced=0 / bluray_compat=0 / constrained_intra=0 / bframes=3 / b_pyramid=2 / b_adapt=1 / b_bias=0 / direct=1 / weightb=1 / open_gop=0 / weightp=2 / keyint=250 / keyint_min=23 / scenecut=40 / intra_refresh=0 / rc=2pass / mbtree=0 / bitrate=2787 / ratetol=1.0 / qcomp=0.60 / qpmin=0 / qpmax=69 / qpstep=4 / cplxblur=20.0 / qblur=0.5 / ip_ratio=1.40 / pb_ratio=1.30 / aq=1:0.80
Language                       : English
Default                        : Yes
Forced                         : No

Audio #1
ID                             : 2
Format                         : AC-3
Format/Info                    : Audio Coding 3
Mode extension                 : CM (complete main)
Format settings, Endianness    : Big
Codec ID                       : A_AC3
Duration                       : 2h 17mn
Bit rate mode                  : Constant
Bit rate                       : 192 Kbps
Channel(s)                     : 2 channels
Channel positions              : Front: L R
Sampling rate                  : 48.0 KHz
Bit depth                      : 16 bits
Compression mode               : Lossy
Stream size                    : 189 MiB (6%)
Title                          : DUB {LeDoyen Studio} - iTunes Russia
Language                       : Ukrainian
Default                        : Yes
Forced                         : No

Audio #2
ID                             : 3
Format                         : AC-3
Format/Info                    : Audio Coding 3
Mode extension                 : CM (complete main)
Format settings, Endianness    : Big
Codec ID                       : A_AC3
Duration                       : 2h 17mn
Bit rate mode                  : Constant
Bit rate                       : 384 Kbps
Channel(s)                     : 6 channels
Channel positions              : Front: L C R, Side: L R, LFE
Sampling rate                  : 48.0 KHz
Bit depth                      : 16 bits
Compression mode               : Lossy
Stream size                    : 379 MiB (11%)
Title                          : Original
Language                       : English
Default                        : No
Forced                         : No

Text #1
ID                             : 4
Format                         : UTF-8
Codec ID                       : S_TEXT/UTF8
Codec ID/Info                  : UTF-8 Plain Text
Title                          : Full - iTunes
Language                       : Ukrainian
Default                        : No
Forced                         : No

Text #2
ID                             : 5
Format                         : UTF-8
Codec ID                       : S_TEXT/UTF8
Codec ID/Info                  : UTF-8 Plain Text
Title                          : Full
Language                       : English
Default                        : No
Forced                         : No

Text #3
ID                             : 6
Format                         : UTF-8
Codec ID                       : S_TEXT/UTF8
Codec ID/Info                  : UTF-8 Plain Text
Title                          : SDH
Language                       : English
Default                        : No
Forced                         : No

Menu
00:00:00.000                   : en:Chapter 1
00:04:48.955                   : en:Chapter 2
00:08:37.267                   : en:Chapter 3
00:12:23.034                   : en:Chapter 4
00:18:43.080                   : en:Chapter 5
00:23:25.487                   : en:Chapter 6
00:32:06.424                   : en:Chapter 7
00:37:27.203                   : en:Chapter 8
00:42:50.735                   : en:Chapter 9
00:54:35.647                   : en:Chapter 10
01:01:14.963                   : en:Chapter 11
01:03:28.596                   : en:Chapter 12
01:09:33.795                   : en:Chapter 13
01:19:18.337                   : en:Chapter 14
01:21:56.537                   : en:Chapter 15
01:29:12.347                   : en:Chapter 16
01:34:02.053                   : en:Chapter 17
01:40:27.355                   : en:Chapter 18
01:49:23.098                   : en:Chapter 19
01:55:57.826                   : en:Chapter 20
02:00:37.230                   : en:Chapter 21
02:11:32.676                   : en:Chapter 22

Скріншоти













Джерело:


 Трекер:    Зареєстрований   

Завантажити / скачати фільм українською



відео для новачків



 Зареєстрований:   2014-07-15 17:27
 Розмір:   3.24 GB 
 Оцінка фільму:   8.6/10 (Голосів: 30)
   
Інші релізи
   Ной / Noah (2014) 1080p 3D [Half OverUnder] Ukr/Eng | Sub Ukr/Eng GEORGKys  1 / 0   16.38 GB   2016-01-27 22:15 
   Ной / Noah (2014) DVD9 Ліцензія Beffis  1 / 0   6.77 GB   2015-01-30 10:58 
   Ной / Noah (2014) patriot2305  9 / 0   1.63 GB   2014-12-10 19:15 
   Ной / Noah (2014) Ukr/Eng | Sub Ukr/Eng antik_2008  2 / 0   2.8 GB   2014-12-10 18:25 
   Ной / Noah (2014) 1080p Ukr/Eng | Sub Ukr/Eng 11FrYkT  3 / 0   13.89 GB   2014-12-10 17:30 
   Ной / Noah (2014) AVC Ukr | Sub Ukr/Eng patriot2305  3 / 0   2.61 GB   2014-12-10 17:05 
   Ной / Noah (2014) 720p Ukr/Eng | Sub Ukr/Eng 11FrYkT  1 / 0   5.92 GB   2014-12-10 16:55 
   Ной / Noah (2014) Ukr | Sub Ukr/Eng antik_2008  2 / 0   2.18 GB   2014-12-10 16:10 
Prometeus2014965555 
Новенький


З нами з: 13.07.14
Востаннє: 20.07.14
Повідомлень: 2

2014-07-15 18:49  
звук чистий?
DеLight 
Відео Гуртом - фільмокрай
Відео Гуртом - фільмокрай


З нами з: 24.08.11
Востаннє: 17.11.16
Повідомлень: 664

2014-07-15 18:52  
Prometeus2014965555 написано:
звук чистий?

ліцензія) iTunes.

Drool 
VIP


З нами з: 17.04.10
Востаннє: 05.12.16
Повідомлень: 1262

2014-07-16 07:56  
Приватний торент унеможливлює розміщення на інших трекерах та зменшує "живучість" роздачі, як на мене.
waldi-hurtom 
VIP


З нами з: 07.10.12
Востаннє: 03.12.16
Повідомлень: 611

2014-07-16 22:06  
Немає слів описати вбогість цього фільму. Повне лайно! Расел Кроу пустився берега. Мабуть, програвся на іподромі - раніше знімався лише в якісних фільмах, но останні щонайменше два - відстій! Для немовлят до 6 років. Звісно, не зміг додивитись, як і попередній. 1 з 10.
DеLight 
Відео Гуртом - фільмокрай
Відео Гуртом - фільмокрай


З нами з: 24.08.11
Востаннє: 17.11.16
Повідомлень: 664

2014-07-17 07:46  
waldi-hurtom
Якісь у Вас крайні погляди на оцінювання. Якщо не сподобався фільм, то у цьому випадку тільки "1". Хоча би ще бал накинули за Кроу, як хорошого актора Wide grin

dima.vn.2010 
Свій


З нами з: 24.07.12
Востаннє: 02.12.16
Повідомлень: 63

2014-07-19 23:05  
яка різниця між 720p і 720p-mini?
DеLight 
Відео Гуртом - фільмокрай
Відео Гуртом - фільмокрай


З нами з: 24.08.11
Востаннє: 17.11.16
Повідомлень: 664

2014-07-20 07:29  
dima.vn.2010
Менший розмір у 2-3 рази в середньому.

Копілка 
Новенький


З нами з: 12.07.14
Востаннє: 20.07.14
Повідомлень: 2

2014-07-20 20:44  
Як фільм?! Неупереджено...
don pedro 
Попереджень: 1
Попереджень: 1 


З нами з: 29.06.11
Востаннє: 05.12.16
Повідомлень: 8737

2014-07-20 21:16  
Копілка
Хороший похмурий фентезі-фільм на екологічну і моральну тематику, але якщо ви хочете побачити екранізацію біблійного сюжету дослівно, то вам його краще не дивитись.

Ваш часовий пояс: GMT + 2 Години

Нова тема   Відповісти