Завантажити та скачати торренти українською


Карате Кiд / Карате Пацан / The Karate Kid (2010) 720p 3xUkr/Eng | Sub Multi

Нові коментарі

Нова тема   Відповісти
Автор Повідомлення
Anonymous 







2014-07-15 15:47  
Карате Кiд / Карате Пацан / The Karate Kid (2010) 720p 3xUkr/Eng | Sub Multi



Жанр: екшн, драма, сімейний, спорт
Країна: США, Китай



Кінокомпанія: Columbia Pictures, China Film Group, Jerry Weintraub Productions
Режисер: Гарольд Цварт / Harald Zwart
Актори: Джейден Сміт / Jaden Smith, Джекі Чан / Jackie Chan, Тараджі П. Генсон / Taraji P. Henson, Венвен Гань / Wenwen Han, Ю Рон Ґуан / Yu Rong Guang, Джаред Міннс / Jared Minns, Йі Жао / Yi Zhao, Бо Чжан / Bo Zhang, Люк Карберрі / Luke Carberry

Сюжет:
12-річний хлопчик на ім'я Дре Паркет був, можливо, найпопулярнішим хлопчиком в Детройті, але зміни в кар'єрі його матері приводять їх обох до... Китаю. Дре подобається його нова однокласниця Мей Йінґ, але культурні відмінності роблять їх дружбу неможливою. І навіть гірше, почуття Дре до Мей роблять Ченґа, хлопчика, який просто ас у карате, його ворогом, він з легкістю укладає Дре на лопатки на очах у всієї школи. Несподівано в житті Дре з'являється містер Ган, який, будучи таємним майстром кунг-фу, вчить Дре, як потрібно боротися. Містер Ган вчить хлопчика не бойовим прийомам, а зваженості і спокою – і це стане найцікавішою пригодою в житті хлопчика.


Рейтинг MPAA: PG - рекомендується присутність батьків
Вікова категорія: 6+

Тривалість: 02:20:01
Якість: 720p
Відео:
кодек:
розмір кадру: 1280x534
бітрейт: 5191 кбіт/с [crf=18]

Аудіо # 1:
мова: українська
переклад: професійний дубльований
кодек: 5.1
бітрейт: 640 кбіт/с
Інформація про дубляж
Переклад: Федір Сидорук
Режисер дубляжу: Іван Марченко
Звукорежисер: Фелікс Трескунов
Асистент режисера дубляжу: Євгенія Захваткіна
Координатор проекту: Лариса Шаталова
Ролі дублювали: Денис Капустін, Наталя Романько-Кисельова, Євген Пашин, Ліза Марченко, Михайло Войчук, Владислав Чумак, Олег Лепенець, Наталя Ярошенко, голос із телевізора — Дмитро Завадський, Юрій Ребрик та інші.

Фільм дубльвано компанією Невафільм Україна
Аудіо # 2:
мова: українська
переклад: багатоголосий закадровий
кодек: 2.0
бітрейт: 192 кбіт/с
Інформація про озвучення
Аудіо # 3:
мова: українська
переклад: двоголосий закадровий
кодек: 2.0
бітрейт: 192 кбіт/с
Інформація про озвучення
Аудіо # 4:
мова: англійська
переклад: оригінал
кодек: 5.1
бітрейт: 1536 кбіт/с

Субтитри # 1:
мова: українська (форсовані, на кілька фраз китайською)
тип: програмні (м'які)
формат: *.srt

Субтитри # 2-9:
мова: англійська, чеська, данська, естонська, бразильська португальська, португальська, іспанська, шведська
тип: програмні (м'які)
формат: *.srt
MediaInfo та log
Код:
General
Unique ID                                : 209805402890510990961797978175561137261 (0x9DD70D00B623A506A2C6AA0657F9FC6D)
Complete name                            : The Karate Kid (2010) [3xUkr,Eng sub.Multi] 720p [Hurtom].mkv
Format                                   : Matroska
Format version                           : Version 4 / Version 2
File size                                : 7.71 GiB
Duration                                 : 2h 20mn
Overall bit rate                         : 7 881 Kbps
Movie name                               : Карате Кiд / Карате Пацан / The Karate Kid (2010) 720p [Hurtom]
Encoded date                             : UTC 2014-07-15 10:57:46
Writing application                      : mkvmerge v7.0.0 ('Where We Going') 64bit built on Jun  9 2014 15:16:27
Writing library                          : libebml v1.3.0 + libmatroska v1.4.1
DURATION                                 : 02:13:40.177000000
NUMBER_OF_FRAMES                         : 769
NUMBER_OF_BYTES                          : 27024
_STATISTICS_WRITING_APP                  : mkvmerge v7.0.0 ('Where We Going') 64bit built on Jun  9 2014 15:16:27
_STATISTICS_WRITING_DATE_UTC             : 2014-07-15 10:57:46
_STATISTICS_TAGS                         : BPS DURATION NUMBER_OF_FRAMES NUMBER_OF_BYTES

Video
ID                                       : 1
Format                                   : AVC
Format/Info                              : Advanced Video Codec
Format profile                           : [email protected]
Format settings, CABAC                   : Yes
Format settings, ReFrames                : 8 frames
Codec ID                                 : V_MPEG4/ISO/AVC
Duration                                 : 2h 20mn
Bit rate                                 : 5 191 Kbps
Width                                    : 1 280 pixels
Height                                   : 534 pixels
Display aspect ratio                     : 2.40:1
Frame rate mode                          : Constant
Frame rate                               : 23.976 fps
Color space                              : YUV
Chroma subsampling                       : 4:2:0
Bit depth                                : 8 bits
Scan type                                : Progressive
Bits/(Pixel*Frame)                       : 0.317
Stream size                              : 5.08 GiB (66%)
Title                                    : Карате Кiд / Карате Пацан / The Karate Kid / Каратэ-пацан (2010) 720p [Leonardo]
Writing library                          : core 125 r2208 d9d2288
Encoding settings                        : cabac=1 / ref=8 / deblock=1:-3:-3 / analyse=0x3:0x133 / me=umh / subme=11 / psy=1 / psy_rd=1.00:0.20 / mixed_ref=1 / me_range=32 / chroma_me=1 / trellis=2 / 8x8dct=1 / cqm=0 / deadzone=21,11 / fast_pskip=0 / chroma_qp_offset=-3 / threads=12 / lookahead_threads=2 / sliced_threads=0 / nr=0 / decimate=1 / interlaced=0 / bluray_compat=0 / constrained_intra=0 / bframes=8 / b_pyramid=2 / b_adapt=2 / b_bias=0 / direct=1 / weightb=1 / open_gop=0 / weightp=2 / keyint=250 / keyint_min=23 / scenecut=40 / intra_refresh=0 / rc=crf / mbtree=0 / crf=18.0 / qcomp=0.60 / qpmin=0 / qpmax=69 / qpstep=4 / ip_ratio=1.40 / pb_ratio=1.30 / aq=2:1.00
Language                                 : English
Default                                  : Yes
Forced                                   : No
DURATION                                 : 02:20:01.393000000
NUMBER_OF_FRAMES                         : 201432
NUMBER_OF_BYTES                          : 5612751371
_STATISTICS_WRITING_APP                  : mkvmerge v7.0.0 ('Where We Going') 64bit built on Jun  9 2014 15:16:27
_STATISTICS_WRITING_DATE_UTC             : 2014-07-15 10:57:46
_STATISTICS_TAGS                         : BPS DURATION NUMBER_OF_FRAMES NUMBER_OF_BYTES

Audio #1
ID                                       : 2
Format                                   : AC-3
Format/Info                              : Audio Coding 3
Mode extension                           : CM (complete main)
Format settings, Endianness              : Big
Codec ID                                 : A_AC3
Duration                                 : 2h 20mn
Bit rate mode                            : Constant
Bit rate                                 : 640 Kbps
Channel(s)                               : 6 channels
Channel positions                        : Front: L C R, Side: L R, LFE
Sampling rate                            : 48.0 KHz
Bit depth                                : 16 bits
Compression mode                         : Lossy
Stream size                              : 641 MiB (8%)
Title                                    : Dub [Blu-ray] 5.1 640 Kbps
Language                                 : Ukrainian
Default                                  : Yes
Forced                                   : No

Audio #2
ID                                       : 3
Format                                   : AC-3
Format/Info                              : Audio Coding 3
Mode extension                           : CM (complete main)
Format settings, Endianness              : Big
Codec ID                                 : A_AC3
Duration                                 : 2h 20mn
Bit rate mode                            : Constant
Bit rate                                 : 192 Kbps
Channel(s)                               : 2 channels
Channel positions                        : Front: L R
Sampling rate                            : 48.0 KHz
Bit depth                                : 16 bits
Compression mode                         : Lossy
Delay relative to video                  : 26ms
Stream size                              : 192 MiB (2%)
Title                                    : MVO [1+1] 2.0 192 Kbps [Hurtom-Gelios][-6]
Language                                 : Ukrainian
Default                                  : No
Forced                                   : No

Audio #3
ID                                       : 4
Format                                   : AC-3
Format/Info                              : Audio Coding 3
Mode extension                           : CM (complete main)
Format settings, Endianness              : Big
Codec ID                                 : A_AC3
Duration                                 : 2h 20mn
Bit rate mode                            : Constant
Bit rate                                 : 192 Kbps
Channel(s)                               : 2 channels
Channel positions                        : Front: L R
Sampling rate                            : 48.0 KHz
Bit depth                                : 16 bits
Compression mode                         : Lossy
Stream size                              : 192 MiB (2%)
Title                                    : MVO [Novyj] 2.0 192 Kbps [Hurtom-Gelios][-32ms]
Language                                 : Ukrainian
Default                                  : No
Forced                                   : No

Audio #4
ID                                       : 5
Format                                   :
Format/Info                              : Digital Theater Systems
Mode                                     : 16
Format settings, Endianness              : Big
Codec ID                                 : A_DTS
Duration                                 : 2h 20mn
Bit rate mode                            : Constant
Bit rate                                 : 1 509 Kbps
Channel(s)                               : 6 channels
Channel positions                        : Front: L C R, Side: L R, LFE
Sampling rate                            : 48.0 KHz
Bit depth                                : 16 bits
Compression mode                         : Lossy
Delay relative to video                  : 4ms
Stream size                              : 1.48 GiB (19%)
Title                                    : Original 5.1 1536 Kbps [-7ms]
Language                                 : English
Default                                  : No
Forced                                   : No

Text #1
ID                                       : 6
Format                                   : UTF-8
Codec ID                                 : S_TEXT/UTF8
Codec ID/Info                            : UTF-8 Plain Text
Title                                    : Ukr forced
Language                                 : Ukrainian
Default                                  : Yes
Forced                                   : Yes

Text #2
ID                                       : 7
Format                                   : UTF-8
Codec ID                                 : S_TEXT/UTF8
Codec ID/Info                            : UTF-8 Plain Text
Title                                    : Eng
Language                                 : English
Default                                  : No
Forced                                   : No

Text #3
ID                                       : 8
Format                                   : UTF-8
Codec ID                                 : S_TEXT/UTF8
Codec ID/Info                            : UTF-8 Plain Text
Title                                    : Czech full
Language                                 : Czech
Default                                  : No
Forced                                   : No

Text #4
ID                                       : 9
Format                                   : UTF-8
Codec ID                                 : S_TEXT/UTF8
Codec ID/Info                            : UTF-8 Plain Text
Title                                    : Dutch full
Language                                 : Dutch
Default                                  : No
Forced                                   : No

Text #5
ID                                       : 10
Format                                   : UTF-8
Codec ID                                 : S_TEXT/UTF8
Codec ID/Info                            : UTF-8 Plain Text
Title                                    : Estonian full
Language                                 : Estonian
Default                                  : No
Forced                                   : No

Text #6
ID                                       : 11
Format                                   : UTF-8
Codec ID                                 : S_TEXT/UTF8
Codec ID/Info                            : UTF-8 Plain Text
Title                                    : Brasil Portuguese full
Language                                 : Portuguese
Default                                  : No
Forced                                   : No

Text #7
ID                                       : 12
Format                                   : UTF-8
Codec ID                                 : S_TEXT/UTF8
Codec ID/Info                            : UTF-8 Plain Text
Title                                    : Portuguese full
Language                                 : Portuguese
Default                                  : No
Forced                                   : No

Text #8
ID                                       : 13
Format                                   : UTF-8
Codec ID                                 : S_TEXT/UTF8
Codec ID/Info                            : UTF-8 Plain Text
Title                                    : Spanish full
Language                                 : Spanish
Default                                  : No
Forced                                   : No

Text #9
ID                                       : 14
Format                                   : UTF-8
Codec ID                                 : S_TEXT/UTF8
Codec ID/Info                            : UTF-8 Plain Text
Title                                    : Swedish full
Language                                 : Swedish
Default                                  : No
Forced                                   : No

[info]: frame I:1858 Avg QP:18.13 size:135289
[info]: frame P:55752 Avg QP:19.66 size: 53669
[info]: frame B:143822 Avg QP:22.30 size: 16473
[info]: consecutive B-frames: 5.8% 4.6% 14.3% 30.2% 22.0% 21.5% 1.2% 0.3% 0.2%
[info]: mb I I16..4: 15.5% 52.2% 32.2%
[info]: mb P I16..4: 2.5% 14.7% 4.3% P16..4: 25.1% 31.5% 12.9% 4.4% 0.6% skip: 3.9%
[info]: mb B I16..4: 0.1% 1.9% 0.5% B16..8: 35.9% 22.7% 4.1% direct: 6.5% skip:28.3% L0:36.0% L1:43.9% BI:20.1%
[info]: 8x8 transform intra:67.7% inter:44.4%
[info]: coded y,uvDC,uvAC intra: 93.1% 93.2% 79.2% inter: 31.2% 23.5% 7.1%
[info]: i16 v,h,dc,p: 8% 5% 18% 69%
[info]: i8 v,h,dc,ddl,ddr,vr,hd,vl,hu: 13% 9% 8% 9% 12% 13% 12% 12% 12%
[info]: i4 v,h,dc,ddl,ddr,vr,hd,vl,hu: 19% 7% 5% 9% 13% 13% 12% 11% 12%
[info]: i8c dc,h,v,p: 39% 18% 21% 22%
[info]: Weighted P-Frames: Y:10.3% UV:6.0%
[info]: ref P L0: 51.5% 13.7% 17.5% 5.1% 4.4% 2.9% 2.8% 1.7% 0.5% 0.1%
[info]: ref B L0: 87.5% 6.7% 2.4% 1.3% 1.3% 0.6% 0.3%
[info]: ref B L1: 97.3% 2.7%
[info]: kb/s:5344.59




Джерела та подяки:
ріп відео, оригінальні звук та субтитри - Leonardo (рутор); українські доріжки (1+1 та Новий) - Gelios - зведення, xslim, piligrimm97, ratbol - запис з ТБ; українізований постер - Gelios (всі - Гуртом).


ЗАЛИШАЙТЕСЬ ЯКОМОГА ДОВШЕ НА РОЗДАЧІ!

СКАЧАВ САМ - ДАЙ СКАЧАТИ ІНШИМ


 Трекер:    Зареєстрований   

Завантажити / скачати фільм українською



відео для новачків



 Зареєстрований:   2014-07-15 15:47
 Розмір:   7.71 GB 
 Оцінка фільму:   3.7/10 (Голосів: 15)
   
Ваш часовий пояс: GMT + 2 Години

Нова тема   Відповісти