Завантажити та скачати торренти українською


Карате Кiд / Карате Пацан / The Karate Kid (2010) 1080p 3xUkr/Eng | Sub Multi

Нові коментарі

Нова тема   Відповісти
Автор Повідомлення
Anonymous 







2014-07-15 15:20  
Карате Кiд / Карате Пацан / The Karate Kid (2010) 1080p 3xUkr/Eng | Sub Multi



Жанр: екшн, драма, сімейний, спорт
Країна: США, Китай



Кінокомпанія: Columbia Pictures, China Film Group, Jerry Weintraub Productions
Режисер: Гарольд Цварт / Harald Zwart
Актори: Джейден Сміт / Jaden Smith, Джекі Чан / Jackie Chan, Тараджі П. Генсон / Taraji P. Henson, Венвен Гань / Wenwen Han, Ю Рон Ґуан / Yu Rong Guang, Джаред Міннс / Jared Minns, Йі Жао / Yi Zhao, Бо Чжан / Bo Zhang, Люк Карберрі / Luke Carberry

Сюжет:
12-річний хлопчик на ім'я Дре Паркет був, можливо, найпопулярнішим хлопчиком в Детройті, але зміни в кар'єрі його матері приводять їх обох до... Китаю. Дре подобається його нова однокласниця Мей Йінґ, але культурні відмінності роблять їх дружбу неможливою. І навіть гірше, почуття Дре до Мей роблять Ченґа, хлопчика, який просто ас у карате, його ворогом, він з легкістю укладає Дре на лопатки на очах у всієї школи. Несподівано в житті Дре з'являється містер Ган, який, будучи таємним майстром кунг-фу, вчить Дре, як потрібно боротися. Містер Ган вчить хлопчика не бойовим прийомам, а зваженості і спокою – і це стане найцікавішою пригодою в житті хлопчика.


Рейтинг MPAA: PG - рекомендується присутність батьків
Вікова категорія: 6+

Тривалість: 02:20:01
Якість: 1080p
Відео:
кодек:
розмір кадру: 1920x800
бітрейт: 12000 кбіт/с

Аудіо # 1:
мова: українська
переклад: професійний дубльований
кодек: 5.1
бітрейт: 640 кбіт/с
Інформація про дубляж
Переклад: Федір Сидорук
Режисер дубляжу: Іван Марченко
Звукорежисер: Фелікс Трескунов
Асистент режисера дубляжу: Євгенія Захваткіна
Координатор проекту: Лариса Шаталова
Ролі дублювали: Денис Капустін, Наталя Романько-Кисельова, Євген Пашин, Ліза Марченко, Михайло Войчук, Владислав Чумак, Олег Лепенець, Наталя Ярошенко, голос із телевізора — Дмитро Завадський, Юрій Ребрик та інші.

Фільм дубльвано компанією Невафільм Україна
Аудіо # 2:
мова: українська
переклад: багатоголосий закадровий
кодек: 2.0
бітрейт: 192 кбіт/с
Інформація про озвучення
Аудіо # 3:
мова: українська
переклад: двоголосий закадровий
кодек: 2.0
бітрейт: 192 кбіт/с
Інформація про озвучення
Аудіо # 4:
мова: англійська
переклад: оригінал
кодек: 5.1
бітрейт: 1536 кбіт/с

Субтитри # 1:
мова: українська (форсовані, на кілька фраз китайською)
тип: програмні (м'які)
формат: *.srt

Субтитри # 2-9:
мова: англійська, чеська, данська, естонська, бразильська португальська, португальська, іспанська, шведська
тип: програмні (м'які)
формат: *.srt

Збережено оригінальні розділи, як на Blu-ray.
MediaInfo
Код:
General
Unique ID                                : 204944793022947572817718877686670467792 (0x9A2EEE6F1C533EE58623D96FE596A2D0)
Complete name                            : The Karate Kid (2010) [3xUkr,Eng sub.Multi] 1080p [Hurtom].mkv
Format                                   : Matroska
Format version                           : Version 4 / Version 2
File size                                : 14.2 GiB
Duration                                 : 2h 20mn
Overall bit rate                         : 14.5 Mbps
Movie name                               : Карате Кiд / Карате Пацан / The Karate Kid (2010) 1080p [Hurtom]
Encoded date                             : UTC 2014-07-15 09:27:06
Writing application                      : mkvmerge v7.0.0 ('Where We Going') 64bit built on Jun  9 2014 15:16:27
Writing library                          : libebml v1.3.0 + libmatroska v1.4.1
DURATION                                 : 02:20:01.344000000
NUMBER_OF_FRAMES                         : 262542
NUMBER_OF_BYTES                          : 201632256
_STATISTICS_WRITING_APP                  : mkvmerge v7.0.0 ('Where We Going') 64bit built on Jun  9 2014 15:16:27
_STATISTICS_WRITING_DATE_UTC             : 2014-07-15 09:27:06
_STATISTICS_TAGS                         : BPS DURATION NUMBER_OF_FRAMES NUMBER_OF_BYTES

Video
ID                                       : 1
Format                                   : AVC
Format/Info                              : Advanced Video Codec
Format profile                           : [email protected]
Format settings, CABAC                   : Yes
Format settings, ReFrames                : 5 frames
Codec ID                                 : V_MPEG4/ISO/AVC
Duration                                 : 2h 20mn
Bit rate                                 : 12.0 Mbps
Width                                    : 1 920 pixels
Height                                   : 800 pixels
Display aspect ratio                     : 2.40:1
Frame rate mode                          : Constant
Frame rate                               : 23.976 fps
Color space                              : YUV
Chroma subsampling                       : 4:2:0
Bit depth                                : 8 bits
Scan type                                : Progressive
Bits/(Pixel*Frame)                       : 0.326
Stream size                              : 11.5 GiB (81%)
Title                                    : Карате Кiд / Карате Пацан / The Karate Kid / Каратэ-пацан (2010) 1080p [HDbits-EbP]
Writing library                          : core 105 r1724 b02df7b
Encoding settings                        : cabac=1 / ref=5 / deblock=1:-3:-3 / analyse=0x3:0x113 / me=tesa / subme=10 / psy=1 / psy_rd=1.00:0.00 / mixed_ref=1 / me_range=16 / chroma_me=1 / trellis=2 / 8x8dct=1 / cqm=0 / deadzone=21,11 / fast_pskip=0 / chroma_qp_offset=-2 / threads=12 / sliced_threads=0 / nr=0 / decimate=0 / interlaced=0 / constrained_intra=0 / bframes=8 / b_pyramid=2 / b_adapt=2 / b_bias=0 / direct=3 / weightb=1 / open_gop=0 / weightp=2 / keyint=250 / keyint_min=23 / scenecut=40 / intra_refresh=0 / rc=2pass / mbtree=0 / bitrate=12000 / ratetol=1.0 / qcomp=0.60 / qpmin=10 / qpmax=51 / qpstep=4 / cplxblur=20.0 / qblur=0.5 / ip_ratio=1.40 / pb_ratio=1.30 / aq=1:0.85
Language                                 : English
Default                                  : Yes
Forced                                   : No
DURATION                                 : 02:20:01.393000000
NUMBER_OF_FRAMES                         : 201432
NUMBER_OF_BYTES                          : 12597618889
_STATISTICS_WRITING_APP                  : mkvmerge v7.0.0 ('Where We Going') 64bit built on Jun  9 2014 15:16:27
_STATISTICS_WRITING_DATE_UTC             : 2014-07-15 09:27:06
_STATISTICS_TAGS                         : BPS DURATION NUMBER_OF_FRAMES NUMBER_OF_BYTES

Audio #1
ID                                       : 2
Format                                   : AC-3
Format/Info                              : Audio Coding 3
Mode extension                           : CM (complete main)
Format settings, Endianness              : Big
Codec ID                                 : A_AC3
Duration                                 : 2h 20mn
Bit rate mode                            : Constant
Bit rate                                 : 640 Kbps
Channel(s)                               : 6 channels
Channel positions                        : Front: L C R, Side: L R, LFE
Sampling rate                            : 48.0 KHz
Bit depth                                : 16 bits
Compression mode                         : Lossy
Stream size                              : 641 MiB (4%)
Title                                    : Dub [Blu-ray] 5.1 640 Kbps
Language                                 : Ukrainian
Default                                  : Yes
Forced                                   : No

Audio #2
ID                                       : 3
Format                                   : AC-3
Format/Info                              : Audio Coding 3
Mode extension                           : CM (complete main)
Format settings, Endianness              : Big
Codec ID                                 : A_AC3
Duration                                 : 2h 20mn
Bit rate mode                            : Constant
Bit rate                                 : 192 Kbps
Channel(s)                               : 2 channels
Channel positions                        : Front: L R
Sampling rate                            : 48.0 KHz
Bit depth                                : 16 bits
Compression mode                         : Lossy
Stream size                              : 192 MiB (1%)
Title                                    : MVO [1+1] 2.0 192 Kbps [Hurtom-Gelios]
Language                                 : Ukrainian
Default                                  : No
Forced                                   : No

Audio #3
ID                                       : 4
Format                                   : AC-3
Format/Info                              : Audio Coding 3
Mode extension                           : CM (complete main)
Format settings, Endianness              : Big
Codec ID                                 : A_AC3
Duration                                 : 2h 20mn
Bit rate mode                            : Constant
Bit rate                                 : 192 Kbps
Channel(s)                               : 2 channels
Channel positions                        : Front: L R
Sampling rate                            : 48.0 KHz
Bit depth                                : 16 bits
Compression mode                         : Lossy
Delay relative to video                  : 9ms
Stream size                              : 192 MiB (1%)
Title                                    : MVO [Novyj] 2.0 192 Kbps [Hurtom-Gelios][-23ms]
Language                                 : Ukrainian
Default                                  : No
Forced                                   : No

Audio #4
ID                                       : 5
Format                                   :
Format/Info                              : Digital Theater Systems
Mode                                     : 16
Format settings, Endianness              : Big
Codec ID                                 : A_DTS
Duration                                 : 2h 20mn
Bit rate mode                            : Constant
Bit rate                                 : 1 509 Kbps
Channel(s)                               : 6 channels
Channel positions                        : Front: L C R, Side: L R, LFE
Sampling rate                            : 48.0 KHz
Bit depth                                : 16 bits
Compression mode                         : Lossy
Stream size                              : 1.48 GiB (10%)
Title                                    : Original 5.1 1536 Kbps
Language                                 : English
Default                                  : No
Forced                                   : No

Text #1
ID                                       : 6
Format                                   : UTF-8
Codec ID                                 : S_TEXT/UTF8
Codec ID/Info                            : UTF-8 Plain Text
Title                                    : Ukr forced
Language                                 : Ukrainian
Default                                  : Yes
Forced                                   : Yes

Text #2
ID                                       : 7
Format                                   : UTF-8
Codec ID                                 : S_TEXT/UTF8
Codec ID/Info                            : UTF-8 Plain Text
Title                                    : Eng full
Language                                 : English
Default                                  : No
Forced                                   : No

Text #3
ID                                       : 8
Format                                   : UTF-8
Codec ID                                 : S_TEXT/UTF8
Codec ID/Info                            : UTF-8 Plain Text
Title                                    : Czech full
Language                                 : Czech
Default                                  : No
Forced                                   : No

Text #4
ID                                       : 9
Format                                   : UTF-8
Codec ID                                 : S_TEXT/UTF8
Codec ID/Info                            : UTF-8 Plain Text
Title                                    : Dutch full
Language                                 : Dutch
Default                                  : No
Forced                                   : No

Text #5
ID                                       : 10
Format                                   : UTF-8
Codec ID                                 : S_TEXT/UTF8
Codec ID/Info                            : UTF-8 Plain Text
Title                                    : Estonian full
Language                                 : Estonian
Default                                  : No
Forced                                   : No

Text #6
ID                                       : 11
Format                                   : UTF-8
Codec ID                                 : S_TEXT/UTF8
Codec ID/Info                            : UTF-8 Plain Text
Title                                    : Brasil Portuguese full
Language                                 : Portuguese
Default                                  : No
Forced                                   : No

Text #7
ID                                       : 12
Format                                   : UTF-8
Codec ID                                 : S_TEXT/UTF8
Codec ID/Info                            : UTF-8 Plain Text
Title                                    : Portuguese full
Language                                 : Portuguese
Default                                  : No
Forced                                   : No

Text #8
ID                                       : 13
Format                                   : UTF-8
Codec ID                                 : S_TEXT/UTF8
Codec ID/Info                            : UTF-8 Plain Text
Title                                    : Spanish full
Language                                 : Spanish
Default                                  : No
Forced                                   : No

Text #9
ID                                       : 14
Format                                   : UTF-8
Codec ID                                 : S_TEXT/UTF8
Codec ID/Info                            : UTF-8 Plain Text
Title                                    : Swedish full
Language                                 : Swedish
Default                                  : No
Forced                                   : No

Menu
00:00:00.000                             : :00:00:00.000
00:10:26.251                             : :00:10:26.251
00:15:06.322                             : :00:15:06.322
00:24:27.216                             : :00:24:27.216
00:39:49.304                             : :00:39:49.304
00:49:52.406                             : :00:49:52.406
00:54:55.000                             : :00:54:55.000
01:04:37.624                             : :01:04:37.624
01:09:47.058                             : :01:09:47.058
01:20:24.570                             : :01:20:24.570
01:30:43.480                             : :01:30:43.480
01:41:44.098                             : :01:41:44.098
01:46:57.661                             : :01:46:57.661
01:50:24.576                             : :01:50:24.576
01:58:59.674                             : :01:58:59.674
02:03:57.180                             : :02:03:57.180




Джерела та подяки: &
ріп відео, оригінальні звук та субтитри - EbP (HDbits, HDClub); українські доріжки (1+1 та Новий) - Gelios - зведення, xslim, piligrimm97, ratbol - запис з ТБ; українізований постер - Gelios (всі - Гуртом).


ЗАЛИШАЙТЕСЬ ЯКОМОГА ДОВШЕ НА РОЗДАЧІ!

СКАЧАВ САМ - ДАЙ СКАЧАТИ ІНШИМ


 Трекер:    Зареєстрований   

Завантажити / скачати фільм українською



відео для новачків



 Зареєстрований:   2014-07-15 15:20
 Розмір:   14.21 GB 
 Оцінка фільму:   3.6/10 (Голосів: 15)
   
Ваш часовий пояс: GMT + 2 Години

Нова тема   Відповісти