Завантажити та скачати торренти українською


Козацькі байки (2013) 720p

Нові коментарі

Нова тема   Відповісти
Автор Повідомлення
antonik18 
VIP


З нами з: 12.03.10
Востаннє: 10.12.16
Повідомлень: 357

2014-07-13 17:11  
Козацькі байки (2013) 720p



Жанр: історичний, комедія, короткометражний
Країна: Україна

Режисер: Антон Жадько
Актори: Ярослав Коваль, Андрій Лозовий, Юрій Капішинський, Тетяна Кондрашева, Станіслав Шкляренко, Максим Березнер, Максим Вершина та інші

Сюжет:
Троє козаків варять куліш та розповідають один одному байки про свої славні подвиги і кумедні історії з життя.


Тривалість: 22:04
Якість:
Відео:
кодек:
розмір кадру: 1 280 х 720
бітрейт: 2 217 кб/с

Аудіо:
мова: українська
переклад: оригінал
кодек: 2.0
бітрейт: 192 кб/с

Нагороди
Володар Гран-прі на ювілейному XV-му кінофестивалі "Запорізька Сінерама" та призу глядацьких симпатій. Учасник міжнародного кінофестивалю FIFES (м. Загреб, Хорватія) та конкурсу трейлерів 54-го Краковського кінофестивалю (Польща).
Скріншоти
MediaInfo

General
Complete name : Козацькі байки (2013) [Ukr] [Hurtom]
Format : MPEG-4
Format profile : Base Media / Version 2
Codec ID : mp42
File size : 381 MiB
Duration : 22mn 4s
Overall bit rate mode : Variable
Overall bit rate : 2 411 Kbps
Encoded date : UTC 2014-05-25 00:31:22
Tagged date : UTC 2014-05-25 00:31:22
gsst : 0
gstd : 1324883
gssd : B4D58FF05HH1405242497006535
gshh : r2---sn-uv2oxu-3c2l.googlevideo.com

Video
ID : 1
Format : AVC
Format/Info : Advanced Video Codec
Format profile : [email protected]
Format settings, CABAC : Yes
Format settings, ReFrames : 1 frame
Codec ID : avc1
Codec ID/Info : Advanced Video Coding
Duration : 22mn 4s
Bit rate : 2 217 Kbps
Maximum bit rate : 6 206 Kbps
Width : 1 280 pixels
Height : 720 pixels
Display aspect ratio : 16:9
Frame rate mode : Constant
Frame rate : 23.976 fps
Color space : YUV
Chroma subsampling : 4:2:0
Bit depth : 8 bits
Scan type : Progressive
Bits/(Pixel*Frame) : 0.100
Stream size : 350 MiB (92%)
Tagged date : UTC 2014-05-25 00:32:03

Audio
ID : 2
Format :
Format/Info : Advanced Audio Codec
Format profile : LC
Codec ID : 40
Duration : 22mn 4s
Bit rate mode : Variable
Bit rate : 192 Kbps
Maximum bit rate : 202 Kbps
Channel(s) : 2 channels
Channel positions : Front: L R
Sampling rate : 44.1 KHz
Compression mode : Lossy
Stream size : 30.3 MiB (8%)
Title : IsoMedia File Produced by Google, 5-11-2011
Encoded date : UTC 2014-05-25 00:31:52
Tagged date : UTC 2014-05-25 00:32:03
Джерело:
Особиста оцінка: 10 - без зайвих вагань рекомендую всім!


Золотий реліз (завантажене не впливає на рейтинг)
 Трекер:    Зареєстрований   

Завантажити / скачати український фільм



відео для новачків



 Зареєстрований:   2014-07-13 17:11
 Розмір:   381 MB 
 Оцінка фільму:   9.6/10 (Голосів: 46)
   
OLD_ScRiPt 
Частий відвідувач


З нами з: 01.05.13
Востаннє: 11.12.16
Повідомлень: 41

2014-07-14 08:34  
Дякую)
anton_zhadko 
Новенький


З нами з: 29.09.14
Востаннє: 28.11.16
Повідомлень: 1

2014-09-29 12:36  
Можливо, комусь знадобиться фільм у трохи кращій якості: http://www.ex.ua/650449915106
Кирило Тур 
Свій


З нами з: 28.04.14
Востаннє: 27.10.14
Повідомлень: 57

2014-09-30 15:34  
Непогана короткометражка. Рекомендую.
nvynn 
Новенький


З нами з: 11.03.12
Востаннє: 09.08.16
Повідомлень: 2

2014-11-30 22:41  
Непервершено!!!
Музика неповторна!!!
Молотці!!!

g0zzy 
Новенький


З нами з: 14.06.14
Востаннє: 23.01.16
Повідомлень: 1

2015-04-18 15:41  
на жаль, дуже посередньо...
volodymyr_sav 
VIP


З нами з: 07.10.13
Востаннє: 10.12.16
Повідомлень: 794

2015-09-08 21:56  
У цьому випадку кажуть: добре, але мало. Чудова музика та якісна постановка трюків. фІЛЬМ ДУЖЕ РЕАЛІСТИЧНИМ ВИЙШОВ. УСІМ ДИВИТИСЬ
Ua.bos_01 
VIP


З нами з: 22.06.15
Востаннє: 06.12.16
Повідомлень: 1291

2015-09-24 10:54  
Доволі просто, але водночас дуже гарно створений кіно-фільм. Справді таких фільмів потрібно створювати, як змога більше. Раджу до перегляду.
mr.killer 
Свій


З нами з: 11.08.10
Востаннє: 08.12.16
Повідомлень: 146

2016-07-18 23:51  
Чому в описі а на файлі написано , де правда? Це ж абсолютно різні речі
pintg 
Свій


З нами з: 14.04.16
Востаннє: 11.12.16
Повідомлень: 63

2016-11-24 09:19  
на ex.ua написано:
Фільм знімався без бюджету, виключно на ентузіазмі небайдужих до українського кінематографу людей.

Ваш часовий пояс: GMT + 2 Години

Нова тема   Відповісти