Завантажити та скачати торренти українською


Коротке замикання: Дилогія / Short Circuit Dilogy (1986/1988) 720p Ukr/Eng | Sub Eng

Нові коментарі

Нова тема   Відповісти
Автор Повідомлення
Anonymous 







2014-07-12 00:40  
Коротке замикання: Дилогія / Short Circuit Dilogy (1986/1988) 720p Ukr/Eng | Sub Eng



Жанр: фантастика, комедія, сімейний

Коротке замикання / Short Circuit (1986) 720p Ukr/Eng | Sub Eng

Коротке замикання / Short Circuit (1986) AVC Ukr/Eng | Sub Eng



Жанр: фантастика, комедія, сімейний
Країна: США



Кінокомпанія: TriStar Pictures, Producers Sales Organization (PSO), Turman-Foster Company
Режисер: Джон Бедгем / John Badham
Актори: Еллі Шіді / Ally Sheedy, Стів Ґутенберґ / Steve Guttenberg, Фішер Стівенс / Fisher Stevens, Остін Пендлтон / Austin Pendleton, Дж. В. Бейлі / G.W. Bailey, Брайан МакНамара / Brian McNamara, Тім Блейні / Tim Blaney, Марвін Дж. МакІнтайр / Marvin J. McIntyre, Джон Ґарбер / John Garber, Пенні Сантон / Penny Santon

Сюжет:
Удар блискавки в будівлю військової лабораторії викликає коротке замикання в новітньому прототипі бойового робота під номером 5, в результаті чого втрачається частина його пам'яті. Прагнучи заповнити прогалини в базі даних, робот починає досліджувати навколишній світ, і в результаті ряду випадковостей опиняється за межами території бази...


Рейтинг MPAA: PG - рекомендується присутність батьків
Вікова категорія: 6+

Тривалість: 01:38:34
Якість: 720p
Відео:
кодек:
розмір кадру: 1280х532
бітрейт: 5295 кбіт/с

Аудіо # 1:
мова: українська
переклад: двоголосий закадровий
кодек: 2.0
бітрейт: 192 кбіт/с

Аудіо # 2:
мова: англійська
переклад: оригінал
кодек: 5.1
бітрейт: 1536 кбіт/с

Аудіо # 3:
мова: англійська
переклад: коментарі режисера
кодек: 2.0
бітрейт: 96 кбіт/с

Субтитри:
мова: англійська
тип: програмні (м'які)
формат: *.srt
MediaInfo та log
Код:
General
Unique ID                                : 216575941430050136615827455932260973549 (0xA2EF02534A25843A91FA953915F07BED)
Complete name                            : Short Circuit (1986) [Ukr,Eng sub.Eng] 720p [Hurtom].mkv
Format                                   : Matroska
Format version                           : Version 4 / Version 2
File size                                : 4.88 GiB
Duration                                 : 1h 38mn
Overall bit rate                         : 7 095 Kbps
Movie name                               : Коротке замикання / Short Circuit (1986) 720p [Hurtom]
Encoded date                             : UTC 2014-07-10 19:18:32
Writing application                      : mkvmerge v7.0.0 ('Where We Going') 64bit built on Jun  9 2014 15:16:27
Writing library                          : libebml v1.3.0 + libmatroska v1.4.1
DURATION                                 : 01:38:34.038000000
NUMBER_OF_FRAMES                         : 554441
NUMBER_OF_BYTES                          : 1115535292
_STATISTICS_WRITING_APP                  : mkvmerge v7.0.0 ('Where We Going') 64bit built on Jun  9 2014 15:16:27
_STATISTICS_WRITING_DATE_UTC             : 2014-07-10 19:18:32
_STATISTICS_TAGS                         : BPS DURATION NUMBER_OF_FRAMES NUMBER_OF_BYTES

Video
ID                                       : 1
Format                                   : AVC
Format/Info                              : Advanced Video Codec
Format profile                           : [email protected]
Format settings, CABAC                   : Yes
Format settings, ReFrames                : 9 frames
Codec ID                                 : V_MPEG4/ISO/AVC
Duration                                 : 1h 38mn
Nominal bit rate                         : 5 295 Kbps
Width                                    : 1 280 pixels
Height                                   : 532 pixels
Display aspect ratio                     : 2.40:1
Frame rate mode                          : Constant
Frame rate                               : 23.976 fps
Color space                              : YUV
Chroma subsampling                       : 4:2:0
Bit depth                                : 8 bits
Scan type                                : Progressive
Bits/(Pixel*Frame)                       : 0.324
Title                                    : Коротке замикання / Short Circuit / Короткое замыкание (1986) 720p [Rutracker-Andrew Placid]
Writing library                          : core 80 r1376M 3feaec2
Encoding settings                        : cabac=1 / ref=9 / deblock=1:-2:-2 / analyse=0x3:0x113 / me=umh / subme=10 / psy=1 / psy_rd=1.1:0.1 / mixed_ref=1 / me_range=24 / chroma_me=1 / trellis=2 / 8x8dct=1 / cqm=0 / deadzone=21,11 / fast_pskip=0 / chroma_qp_offset=-3 / threads=3 / sliced_threads=0 / nr=0 / decimate=0 / mbaff=0 / constrained_intra=0 / bframes=6 / b_pyramid=2 / b_adapt=2 / b_bias=0 / direct=3 / wpredb=1 / wpredp=2 / keyint=250 / keyint_min=25 / scenecut=40 / rc=2pass / mbtree=0 / bitrate=5295 / ratetol=1.0 / qcomp=0.60 / qpmin=10 / qpmax=51 / qpstep=4 / cplxblur=20.0 / qblur=0.5 / ip_ratio=1.40 / pb_ratio=1.30 / aq=1:0.60
Language                                 : English
Default                                  : Yes
Forced                                   : No
DURATION                                 : 01:38:34.033000000
NUMBER_OF_FRAMES                         : 141795
NUMBER_OF_BYTES                          : 3914091539
_STATISTICS_WRITING_APP                  : mkvmerge v7.0.0 ('Where We Going') 64bit built on Jun  9 2014 15:16:27
_STATISTICS_WRITING_DATE_UTC             : 2014-07-10 19:18:32
_STATISTICS_TAGS                         : BPS DURATION NUMBER_OF_FRAMES NUMBER_OF_BYTES

Audio #1
ID                                       : 2
Format                                   : AC-3
Format/Info                              : Audio Coding 3
Mode extension                           : CM (complete main)
Format settings, Endianness              : Big
Codec ID                                 : A_AC3
Duration                                 : 1h 38mn
Bit rate mode                            : Constant
Bit rate                                 : 192 Kbps
Channel(s)                               : 2 channels
Channel positions                        : Front: L R
Sampling rate                            : 48.0 KHz
Bit depth                                : 16 bits
Compression mode                         : Lossy
Stream size                              : 135 MiB (3%)
Title                                    : DVO [Novyj] 2.0 192 Kbps [Hurtom-karvai0]
Language                                 : Ukrainian
Default                                  : Yes
Forced                                   : No

Audio #2
ID                                       : 3
Format                                   :
Format/Info                              : Digital Theater Systems
Mode                                     : 16
Format settings, Endianness              : Big
Codec ID                                 : A_DTS
Duration                                 : 1h 38mn
Bit rate mode                            : Constant
Bit rate                                 : 1 509 Kbps
Channel(s)                               : 6 channels
Channel positions                        : Front: L C R, Side: L R, LFE
Sampling rate                            : 48.0 KHz
Bit depth                                : 24 bits
Compression mode                         : Lossy
Stream size                              : 1.04 GiB (21%)
Title                                    : Original 5.1 1536 Kbps
Language                                 : English
Default                                  : No
Forced                                   : No

Audio #3
ID                                       : 4
Format                                   :
Format/Info                              : Advanced Audio Codec
Format profile                           : LC
Codec ID                                 : A_AAC
Duration                                 : 1h 38mn
Channel(s)                               : 2 channels
Channel positions                        : Front: L R
Sampling rate                            : 48.0 KHz
Compression mode                         : Lossy
Title                                    : Director's commentary LC 2.0 96 Kbps
Language                                 : English
Default                                  : No
Forced                                   : No

Text
ID                                       : 5
Format                                   : UTF-8
Codec ID                                 : S_TEXT/UTF8
Codec ID/Info                            : UTF-8 Plain Text
Title                                    : Eng full
Language                                 : English
Default                                  : No
Forced                                   : No

---[NoImage] avs [info]: 1280x532 @ 23.98 fps (141795 frames)
---[NoImage] [info]: using SAR=1/1
---[NoImage] [info]: using cpu capabilities: MMX2 SSE2Fast SSSE3 FastShuffle SSE4.1 Cache64
---[NoImage] [info]: profile High, level 4.1
---[NoImage]
---[NoImage] [info]: frame I:1524 Avg QP:16.75 size: 92897
---[NoImage] [info]: frame P:30161 Avg QP:18.57 size: 46121
---[NoImage] [info]: frame B:110110 Avg QP:20.48 size: 21629
---[NoImage] [info]: consecutive B-frames: 0.9% 1.8% 5.0% 27.6% 19.6% 31.8% 13.3%
---[NoImage] [info]: mb I I16..4: 3.4% 81.9% 14.7%
---[NoImage] [info]: mb P I16..4: 0.9% 22.6% 2.3% P16..4: 32.5% 27.0% 13.5% 0.0% 0.0% skip: 1.2%
---[NoImage] [info]: mb B I16..4: 0.1% 3.0% 0.4% B16..8: 52.5% 3.2% 4.3% direct:17.7% skip:18.7% L0:43.2% L1:41.1% BI:15.8%
---[NoImage] [info]: 8x8 transform intra:86.5% inter:64.8%
---[NoImage] [info]: direct mvs spatial:98.2% temporal:1.8%
---[NoImage] [info]: coded y,uvDC,uvAC intra: 94.0% 86.9% 55.6% inter: 54.5% 51.0% 10.6%
---[NoImage] [info]: i16 v,h,dc,p: 28% 25% 8% 40%
---[NoImage] [info]: i8 v,h,dc,ddl,ddr,vr,hd,vl,hu: 10% 11% 8% 9% 13% 12% 13% 11% 14%
---[NoImage] [info]: i4 v,h,dc,ddl,ddr,vr,hd,vl,hu: 26% 12% 3% 7% 11% 11% 11% 9% 10%
---[NoImage] [info]: Weighted P-Frames: Y:10.3%
---[NoImage] [info]: ref P L0: 36.3% 18.1% 16.3% 7.5% 6.9% 4.9% 4.2% 2.8% 2.6% 0.3% 0.0%
---[NoImage] [info]: ref B L0: 63.3% 14.5% 7.9% 4.9% 3.8% 3.2% 1.7% 0.6%
---[NoImage] [info]: ref B L1: 89.6% 10.4%
---[NoImage] [info]: SSIM Mean Y:0.9765342
---[NoImage] [info]: kb/s:5294.73

Коротке замикання 2 / Short Circuit 2 (1988) 720p 2xUkr/Eng | Sub Eng

Коротке замикання 2 / Short Circuit 2 (1988) 720p 2xUkr/Eng | Sub Eng




Жанр: комедія, драма, сімейний, фантастика
Країна: США



Кінокомпанія: TriStar Pictures, Turman-Foster Company
Режисер: Кенет Джонсон / Kenneth Johnson
Актори: Фішер Стівенс / Fisher Stevens, Майкл МакКін / Michael McKean, Сінтія Ґібб / Cynthia Gibb, Тім Блейні / Tim Blaney, Джек Вестон / Jack Weston, Ді МакКефферті / Dee McCafferty, Девід Гемблен / David Hemblen, Дон Лейк / Don Lake, Деймон Д’Олівера / Damon D'Oliveira, Тіто Нуньєс / Tito Núñez

Сюжет:
Бен Джарві, за походженням індієць, а за професією – винахідник-конструктор роботів, змушений працювати вуличним торговцем. У першому фільмі його усунули від роботи після інциденту зі створеним ним роботом Номер п'ять. Тепер Бен опинився на мілині, він змушений жити у фургончику й робити іграшкових роботів для продажу на вулиці. Ці роботи всі, як один, схожі на Номер п'ять, але тільки дизайном... Номер п'ять здобув особистість завдяки короткому замиканню, а ці малюки – всього лише бездушні іграшки. Маленькі роботи привертають увагу співробітниці відомого магазину іграшок, і вона робить Бену вигідну пропозицію – до Різдва він повинен зібрати тисячі таких роботів і продати магазину оптом. Підприємливий американець радить Бену прийняти вигідну пропозицію й обіцяє допомогти йому у виконанні замовлення. Бен укладає угоду. Разом зі своїм компаньйоном він орендує робочий цех і залучає помічників. Приїжджає і Номер п’ять, щоб допомогти своєму творцеві й другу Бену. Бен вибирає невдале місце для роботи: поверхом нижче розмістилася ціла банда злочинців. Це грабіжники банків, вони риють підземний хід до сховища, де міститься колекція діамантів. Поява Бена і його помічників може зірвати підготовку до пограбування, тому грабіжники вирішують позбутися небажаних сусідів...


Рейтинг MPAA: PG - рекомендується присутність батьків
Вікова категорія: 6+

Тривалість: 01:50:25
Якість: 720p
Відео:
кодек:
розмір кадру: 1280х694
бітрейт: 9600 кбіт/с

Аудіо # 1:
мова: українська
переклад: двоголосий закадровий
кодек: 2.0
бітрейт: 192 кбіт/с

Аудіо # 2:
мова: українська
переклад: двоголосий закадровий
кодек: 2.0
бітрейт: 192 кбіт/с

Аудіо # 3:
мова: англійська
переклад: оригінал
кодек: 2.0
бітрейт: 640 кбіт/с

Субтитри:
мова: англійська
тип: програмні (м'які)
формат: *.srt

Збережено оригінальні розділи, як на Blu-ray.
MediaInfo
Код:
General
Unique ID                                : 200472553974900125050387017424064652182 (0x96D19C0668E3C9D9B736E8194CEAA396)
Complete name                            : Short Circuit 2 (1988) [2xUkr,Eng sub.Eng] 720p [Hurtom & HDClub].mkv
Format                                   : Matroska
Format version                           : Version 4 / Version 2
File size                                : 8.19 GiB
Duration                                 : 1h 50mn
Overall bit rate                         : 10.6 Mbps
Movie name                               : Коротке замикання 2 / Short Circuit 2 (1988) 720p [Hurtom & HDClub]
Encoded date                             : UTC 2014-07-10 20:43:12
Writing application                      : mkvmerge v7.0.0 ('Where We Going') 64bit built on Jun  9 2014 15:16:27
Writing library                          : libebml v1.3.0 + libmatroska v1.4.1
DURATION                                 : 01:50:25.664000000
NUMBER_OF_FRAMES                         : 207052
NUMBER_OF_BYTES                          : 159015936
_STATISTICS_WRITING_APP                  : mkvmerge v7.0.0 ('Where We Going') 64bit built on Jun  9 2014 15:16:27
_STATISTICS_WRITING_DATE_UTC             : 2014-07-10 20:43:12
_STATISTICS_TAGS                         : BPS DURATION NUMBER_OF_FRAMES NUMBER_OF_BYTES

Video
ID                                       : 1
Format                                   : AVC
Format/Info                              : Advanced Video Codec
Format profile                           : [email protected]
Format settings, CABAC                   : Yes
Format settings, ReFrames                : 9 frames
Codec ID                                 : V_MPEG4/ISO/AVC
Duration                                 : 1h 50mn
Bit rate                                 : 9 600 Kbps
Width                                    : 1 280 pixels
Height                                   : 694 pixels
Display aspect ratio                     : 1.85:1
Frame rate mode                          : Constant
Frame rate                               : 23.976 fps
Color space                              : YUV
Chroma subsampling                       : 4:2:0
Bit depth                                : 8 bits
Scan type                                : Progressive
Bits/(Pixel*Frame)                       : 0.451
Stream size                              : 7.23 GiB (88%)
Title                                    : Коротке замикання 2 / Short Circuit 2 / Короткое замыкание 2 (1988) 720p [HDClub-madoff]
Writing library                          : core 129 r2230 1cffe9f
Encoding settings                        : cabac=1 / ref=9 / deblock=1:-3:-3 / analyse=0x3:0x113 / me=umh / subme=11 / psy=1 / psy_rd=1.20:0.00 / mixed_ref=1 / me_range=32 / chroma_me=1 / trellis=2 / 8x8dct=1 / cqm=0 / deadzone=21,11 / fast_pskip=0 / chroma_qp_offset=-2 / threads=12 / lookahead_threads=2 / sliced_threads=0 / nr=0 / decimate=1 / interlaced=0 / bluray_compat=0 / constrained_intra=0 / bframes=11 / b_pyramid=2 / b_adapt=2 / b_bias=0 / direct=1 / weightb=1 / open_gop=0 / weightp=2 / keyint=240 / keyint_min=22 / scenecut=40 / intra_refresh=0 / rc_lookahead=40 / rc=2pass / mbtree=0 / bitrate=9600 / ratetol=1.0 / qcomp=0.60 / qpmin=10 / qpmax=69 / qpstep=4 / cplxblur=20.0 / qblur=0.5 / vbv_maxrate=50000 / vbv_bufsize=62500 / nal_hrd=none / ip_ratio=1.40 / pb_ratio=1.30 / aq=1:1.00
Language                                 : English
Default                                  : Yes
Forced                                   : No
DURATION                                 : 01:50:25.619000000
NUMBER_OF_FRAMES                         : 158856
NUMBER_OF_BYTES                          : 7940275512
_STATISTICS_WRITING_APP                  : mkvmerge v7.0.0 ('Where We Going') 64bit built on Jun  9 2014 15:16:27
_STATISTICS_WRITING_DATE_UTC             : 2014-07-10 20:43:12
_STATISTICS_TAGS                         : BPS DURATION NUMBER_OF_FRAMES NUMBER_OF_BYTES

Audio #1
ID                                       : 2
Format                                   : AC-3
Format/Info                              : Audio Coding 3
Mode extension                           : CM (complete main)
Format settings, Endianness              : Big
Codec ID                                 : A_AC3
Duration                                 : 1h 50mn
Bit rate mode                            : Constant
Bit rate                                 : 192 Kbps
Channel(s)                               : 2 channels
Channel positions                        : Front: L R
Sampling rate                            : 48.0 KHz
Bit depth                                : 16 bits
Compression mode                         : Lossy
Delay relative to video                  : 25ms
Stream size                              : 152 MiB (2%)
Title                                    : DVO [1+1] 2.0 192 Kbps [Hurtom-karvai0][-7ms]
Language                                 : Ukrainian
Default                                  : Yes
Forced                                   : No

Audio #2
ID                                       : 3
Format                                   : AC-3
Format/Info                              : Audio Coding 3
Mode extension                           : CM (complete main)
Format settings, Endianness              : Big
Codec ID                                 : A_AC3
Duration                                 : 1h 50mn
Bit rate mode                            : Constant
Bit rate                                 : 192 Kbps
Channel(s)                               : 2 channels
Channel positions                        : Front: L R
Sampling rate                            : 48.0 KHz
Bit depth                                : 16 bits
Compression mode                         : Lossy
Delay relative to video                  : 25ms
Stream size                              : 152 MiB (2%)
Title                                    : DVO [Novyj] 2.0 192 Kbps [Hurtom-karvai0][-7ms]
Language                                 : Ukrainian
Default                                  : No
Forced                                   : No

Audio #3
ID                                       : 4
Format                                   : AC-3
Format/Info                              : Audio Coding 3
Mode extension                           : CM (complete main)
Format settings, Endianness              : Big
Codec ID                                 : A_AC3
Duration                                 : 1h 50mn
Bit rate mode                            : Constant
Bit rate                                 : 640 Kbps
Channel(s)                               : 2 channels
Channel positions                        : Front: L R
Sampling rate                            : 48.0 KHz
Bit depth                                : 16 bits
Compression mode                         : Lossy
Stream size                              : 506 MiB (6%)
Title                                    : Original 2.0 640 Kbps
Language                                 : English
Default                                  : No
Forced                                   : No

Text
ID                                       : 5
Format                                   : UTF-8
Codec ID                                 : S_TEXT/UTF8
Codec ID/Info                            : UTF-8 Plain Text
Title                                    : Eng full
Language                                 : English
Default                                  : No
Forced                                   : No

Menu
00:00:00.000                             : :00:00:00.000
00:05:06.764                             : :00:05:06.764
00:11:57.133                             : :00:11:57.133
00:17:12.530                             : :00:17:12.530
00:24:50.989                             : :00:24:50.989
00:35:11.192                             : :00:35:11.192
00:41:19.643                             : :00:41:19.643
00:46:59.315                             : :00:46:59.315
00:56:21.378                             : :00:56:21.378
01:03:52.161                             : :01:03:52.161
01:07:26.751                             : :01:07:26.751
01:15:41.744                             : :01:15:41.744
01:22:34.114                             : :01:22:34.114
01:30:03.689                             : :01:30:03.689
01:38:17.349                             : :01:38:17.349
01:44:27.344                             : :01:44:27.344



Джерела та подяки: & &
ріп відео, оригінальні звук та субтитри - (1) Andrew Placid (рутрекер), (2) madoff (HDclub); українські доріжки - karvai0 - зведення, Tanat13, OlegCena, POMEO - запис з ТБ (всі - Гуртом).


ЗАЛИШАЙТЕСЬ ЯКОМОГА ДОВШЕ НА РОЗДАЧІ!

СКАЧАВ САМ - ДАЙ СКАЧАТИ ІНШИМ


Срібний реліз (на рейтинг впливає 50% завантаженого)
 Трекер:    Зареєстрований   

Завантажити / скачати фільм українською



відео для новачків



 Зареєстрований:   2014-07-12 00:40
 Розмір:   13.07 GB 
 Оцінка фільму:   4/10 (Голосів: 15)
   
Ваш часовий пояс: GMT + 2 Години

Нова тема   Відповісти