Завантажити та скачати торренти українською


Коротке замикання: Дилогія / Short Circuit Dilogy (1986/1988) AVC Ukr/Eng | Sub Eng

Нові коментарі

Нова тема   Відповісти
Автор Повідомлення
Anonymous 







2014-07-11 22:43  
Коротке замикання: Дилогія / Short Circuit Dilogy (1986/1988) AVC Ukr/Eng | Sub Eng



Жанр: фантастика, комедія, сімейний

Коротке замикання / Short Circuit (1986) AVC Ukr/Eng | Sub Eng

Коротке замикання / Short Circuit (1986) AVC Ukr/Eng | Sub Eng



Жанр: фантастика, комедія, сімейний
Країна: США



Кінокомпанія: TriStar Pictures, Producers Sales Organization (PSO), Turman-Foster Company
Режисер: Джон Бедгем / John Badham
Актори: Еллі Шіді / Ally Sheedy, Стів Ґутенберґ / Steve Guttenberg, Фішер Стівенс / Fisher Stevens, Остін Пендлтон / Austin Pendleton, Дж. В. Бейлі / G.W. Bailey, Брайан МакНамара / Brian McNamara, Тім Блейні / Tim Blaney, Марвін Дж. МакІнтайр / Marvin J. McIntyre, Джон Ґарбер / John Garber, Пенні Сантон / Penny Santon

Сюжет:
Удар блискавки в будівлю військової лабораторії викликає коротке замикання в новітньому прототипі бойового робота під номером 5, в результаті чого втрачається частина його пам'яті. Прагнучи заповнити прогалини в базі даних, робот починає досліджувати навколишній світ, і в результаті ряду випадковостей опиняється за межами території бази...


Рейтинг MPAA: PG - рекомендується присутність батьків
Вікова категорія: 6+

Тривалість: 01:38:34
Якість: AVC
Відео:
кодек:
розмір кадру: 1024х426
бітрейт: 3300 кбіт/с

Аудіо # 1:
мова: українська
переклад: двоголосий закадровий
кодек: 2.0
бітрейт: 192 кбіт/с

Аудіо # 2:
мова: англійська
переклад: оригінал
кодек: 5.1
бітрейт: 448 кбіт/с

Субтитри:
мова: англійська
тип: програмні (м'які)
формат: *.srt

Збережено оригінальні розділи, як на Blu-ray.
MediaInfo та log
Код:
General
Unique ID                                : 210557924483375279642984639167312346510 (0x9E67FB2E8CF481CD9B1721AC0FBEBD8E)
Complete name                            : Short Circuit (1986) [Ukr,Eng sub.Eng] AVC [Hurtom].mkv
Format                                   : Matroska
Format version                           : Version 4 / Version 2
File size                                : 2.71 GiB
Duration                                 : 1h 38mn
Overall bit rate                         : 3 942 Kbps
Movie name                               : Коротке замикання / Short Circuit (1986) AVC [Hurtom & MediaClub]
Encoded date                             : UTC 2014-07-10 19:37:13
Writing application                      : mkvmerge v7.0.0 ('Where We Going') 64bit built on Jun  9 2014 15:16:27
Writing library                          : libebml v1.3.0 + libmatroska v1.4.1
DURATION                                 : 01:38:34.016000000
NUMBER_OF_FRAMES                         : 184813
NUMBER_OF_BYTES                          : 141936384
_STATISTICS_WRITING_APP                  : mkvmerge v7.0.0 ('Where We Going') 64bit built on Jun  9 2014 15:16:27
_STATISTICS_WRITING_DATE_UTC             : 2014-07-10 19:37:13
_STATISTICS_TAGS                         : BPS DURATION NUMBER_OF_FRAMES NUMBER_OF_BYTES

Video
ID                                       : 1
Format                                   : AVC
Format/Info                              : Advanced Video Codec
Format profile                           : [email protected]
Format settings, CABAC                   : Yes
Format settings, ReFrames                : 9 frames
Codec ID                                 : V_MPEG4/ISO/AVC
Duration                                 : 1h 38mn
Bit rate                                 : 3 300 Kbps
Width                                    : 1 024 pixels
Height                                   : 426 pixels
Display aspect ratio                     : 2.40:1
Frame rate mode                          : Constant
Frame rate                               : 23.976 fps
Color space                              : YUV
Chroma subsampling                       : 4:2:0
Bit depth                                : 8 bits
Scan type                                : Progressive
Bits/(Pixel*Frame)                       : 0.316
Stream size                              : 2.22 GiB (82%)
Title                                    : Коротке замикання / Short Circuit / Короткое замыкание (1986) AVC [MediaClub-Lefevr&krakatuq]
Writing library                          : core 130 r2273 b3065e6
Encoding settings                        : cabac=1 / ref=9 / deblock=1:-2:-2 / analyse=0x3:0x133 / me=umh / subme=11 / psy=1 / psy_rd=1.00:0.15 / mixed_ref=1 / me_range=32 / chroma_me=1 / trellis=2 / 8x8dct=1 / cqm=0 / deadzone=21,11 / fast_pskip=0 / chroma_qp_offset=-3 / threads=6 / lookahead_threads=1 / sliced_threads=0 / nr=0 / decimate=0 / interlaced=0 / bluray_compat=0 / constrained_intra=0 / bframes=8 / b_pyramid=2 / b_adapt=2 / b_bias=0 / direct=3 / weightb=1 / open_gop=0 / weightp=2 / keyint=240 / keyint_min=23 / scenecut=40 / intra_refresh=0 / rc=2pass / mbtree=0 / bitrate=3300 / ratetol=1.0 / qcomp=0.60 / qpmin=0 / qpmax=69 / qpstep=4 / cplxblur=20.0 / qblur=0.5 / ip_ratio=1.40 / pb_ratio=1.30 / aq=1:1.00
Language                                 : English
Default                                  : Yes
Forced                                   : No
DURATION                                 : 01:38:34.033000000
NUMBER_OF_FRAMES                         : 141795
NUMBER_OF_BYTES                          : 2439496324
_STATISTICS_WRITING_APP                  : mkvmerge v7.0.0 ('Where We Going') 64bit built on Jun  9 2014 15:16:27
_STATISTICS_WRITING_DATE_UTC             : 2014-07-10 19:37:13
_STATISTICS_TAGS                         : BPS DURATION NUMBER_OF_FRAMES NUMBER_OF_BYTES

Audio #1
ID                                       : 2
Format                                   : AC-3
Format/Info                              : Audio Coding 3
Mode extension                           : CM (complete main)
Format settings, Endianness              : Big
Codec ID                                 : A_AC3
Duration                                 : 1h 38mn
Bit rate mode                            : Constant
Bit rate                                 : 192 Kbps
Channel(s)                               : 2 channels
Channel positions                        : Front: L R
Sampling rate                            : 48.0 KHz
Bit depth                                : 16 bits
Compression mode                         : Lossy
Stream size                              : 135 MiB (5%)
Title                                    : DVO [Novyj] 2.0 192 Kbps [Hurtom-karvai0]
Language                                 : Ukrainian
Default                                  : Yes
Forced                                   : No

Audio #2
ID                                       : 3
Format                                   : AC-3
Format/Info                              : Audio Coding 3
Mode extension                           : CM (complete main)
Format settings, Endianness              : Big
Codec ID                                 : A_AC3
Duration                                 : 1h 38mn
Bit rate mode                            : Constant
Bit rate                                 : 448 Kbps
Channel(s)                               : 6 channels
Channel positions                        : Front: L C R, Side: L R, LFE
Sampling rate                            : 48.0 KHz
Bit depth                                : 16 bits
Compression mode                         : Lossy
Stream size                              : 316 MiB (11%)
Title                                    : Original 5.1 448 Kbps
Language                                 : English
Default                                  : No
Forced                                   : No

Text
ID                                       : 4
Format                                   : UTF-8
Codec ID                                 : S_TEXT/UTF8
Codec ID/Info                            : UTF-8 Plain Text
Title                                    : Eng full
Language                                 : English
Default                                  : No
Forced                                   : No

Menu
00:00:00.000                             : en:Chapter 01
00:05:00.000                             : en:Chapter 02
00:10:00.000                             : en:Chapter 03
00:15:00.000                             : en:Chapter 04
00:20:00.000                             : en:Chapter 05
00:25:00.000                             : en:Chapter 06
00:30:00.000                             : en:Chapter 07
00:35:00.000                             : en:Chapter 08
00:40:00.000                             : en:Chapter 09
00:45:00.000                             : en:Chapter 10
00:50:00.000                             : en:Chapter 11
00:55:00.000                             : en:Chapter 12
01:00:00.000                             : en:Chapter 13
01:05:00.000                             : en:Chapter 14
01:10:00.000                             : en:Chapter 15
01:15:00.000                             : en:Chapter 16
01:20:00.000                             : en:Chapter 17
01:25:00.000                             : en:Chapter 18
01:30:00.000                             : en:Chapter 19
01:35:00.000                             : en:Chapter 20


[info]: frame I:1485 Avg QP:16.51 size: 73825
[info]: frame P:30126 Avg QP:19.16 size: 29647
[info]: frame B:110184 Avg QP:20.50 size: 13039

Коротке замикання 2 / Short Circuit 2 (1988) AVC 2xUkr/Eng | Sub Eng

Коротке замикання 2 / Short Circuit 2 (1988) AVC 2xUkr/Eng | Sub Eng




Жанр: комедія, драма, сімейний, фантастика
Країна: США



Кінокомпанія: TriStar Pictures, Turman-Foster Company
Режисер: Кенет Джонсон / Kenneth Johnson
Актори: Фішер Стівенс / Fisher Stevens, Майкл МакКін / Michael McKean, Сінтія Ґібб / Cynthia Gibb, Тім Блейні / Tim Blaney, Джек Вестон / Jack Weston, Ді МакКефферті / Dee McCafferty, Девід Гемблен / David Hemblen, Дон Лейк / Don Lake, Деймон Д’Олівера / Damon D'Oliveira, Тіто Нуньєс / Tito Núñez

Сюжет:
Бен Джарві, за походженням індієць, а за професією – винахідник-конструктор роботів, змушений працювати вуличним торговцем. У першому фільмі його усунули від роботи після інциденту зі створеним ним роботом Номер п'ять. Тепер Бен опинився на мілині, він змушений жити у фургончику й робити іграшкових роботів для продажу на вулиці. Ці роботи всі, як один, схожі на Номер п'ять, але тільки дизайном... Номер п'ять здобув особистість завдяки короткому замиканню, а ці малюки – всього лише бездушні іграшки. Маленькі роботи привертають увагу співробітниці відомого магазину іграшок, і вона робить Бену вигідну пропозицію – до Різдва він повинен зібрати тисячі таких роботів і продати магазину оптом. Підприємливий американець радить Бену прийняти вигідну пропозицію й обіцяє допомогти йому у виконанні замовлення. Бен укладає угоду. Разом зі своїм компаньйоном він орендує робочий цех і залучає помічників. Приїжджає і Номер п’ять, щоб допомогти своєму творцеві й другу Бену. Бен вибирає невдале місце для роботи: поверхом нижче розмістилася ціла банда злочинців. Це грабіжники банків, вони риють підземний хід до сховища, де міститься колекція діамантів. Поява Бена і його помічників може зірвати підготовку до пограбування, тому грабіжники вирішують позбутися небажаних сусідів...


Рейтинг MPAA: PG - рекомендується присутність батьків
Вікова категорія: 6+

Тривалість: 01:50:25
Якість: AVC
Відео:
кодек:
розмір кадру: 1024х556
бітрейт: 3000 кбіт/с

Аудіо # 1:
мова: українська
переклад: двоголосий закадровий
кодек: 2.0
бітрейт: 192 кбіт/с

Аудіо # 2:
мова: українська
переклад: двоголосий закадровий
кодек: 2.0
бітрейт: 192 кбіт/с

Аудіо # 3:
мова: англійська
переклад: оригінал
кодек: 5.1
бітрейт: 448 кбіт/с

Субтитри:
мова: англійська
тип: програмні (м'які)
формат: *.srt

Збережено оригінальні розділи, як на Blu-ray.
MediaInfo та log
Код:
General
Unique ID                                : 226124296740064006171343126917314558062 (0xAA1DF496B388BE5CB49AAC09EAF4B86E)
Complete name                            : Short Circuit 2 (1988) [2xUkr,Eng sub.Eng] AVC [Hurtom & MediaClub].mkv
Format                                   : Matroska
Format version                           : Version 4 / Version 2
File size                                : 2.81 GiB
Duration                                 : 1h 50mn
Overall bit rate                         : 3 641 Kbps
Movie name                               : Коротке замикання 2 / Short Circuit 2 (1988) AVC [Hurtom & MediaClub]
Encoded date                             : UTC 2014-07-10 21:02:57
Writing application                      : mkvmerge v7.0.0 ('Where We Going') 64bit built on Jun  9 2014 15:16:27
Writing library                          : libebml v1.3.0 + libmatroska v1.4.1
DURATION                                 : 01:50:25.664000000
NUMBER_OF_FRAMES                         : 207052
NUMBER_OF_BYTES                          : 159015936
_STATISTICS_WRITING_APP                  : mkvmerge v7.0.0 ('Where We Going') 64bit built on Jun  9 2014 15:16:27
_STATISTICS_WRITING_DATE_UTC             : 2014-07-10 21:02:57
_STATISTICS_TAGS                         : BPS DURATION NUMBER_OF_FRAMES NUMBER_OF_BYTES

Video
ID                                       : 1
Format                                   : AVC
Format/Info                              : Advanced Video Codec
Format profile                           : [email protected]
Format settings, CABAC                   : Yes
Format settings, ReFrames                : 9 frames
Codec ID                                 : V_MPEG4/ISO/AVC
Duration                                 : 1h 50mn
Bit rate                                 : 3 000 Kbps
Width                                    : 1 024 pixels
Height                                   : 556 pixels
Display aspect ratio                     : 1.85:1
Frame rate mode                          : Constant
Frame rate                               : 23.976 fps
Color space                              : YUV
Chroma subsampling                       : 4:2:0
Bit depth                                : 8 bits
Scan type                                : Progressive
Bits/(Pixel*Frame)                       : 0.220
Stream size                              : 2.26 GiB (80%)
Title                                    : Коротке замикання 2 / Short Circuit 2 / Короткое замыкание 2 (1988) AVC [MediaClub-Lefevr&krakatuq]
Writing library                          : core 130 r2273 b3065e6
Encoding settings                        : cabac=1 / ref=9 / deblock=1:-3:-3 / analyse=0x3:0x133 / me=umh / subme=11 / psy=1 / psy_rd=1.05:0.20 / mixed_ref=1 / me_range=32 / chroma_me=1 / trellis=2 / 8x8dct=1 / cqm=0 / deadzone=21,11 / fast_pskip=0 / chroma_qp_offset=-3 / threads=6 / lookahead_threads=1 / sliced_threads=0 / nr=0 / decimate=0 / interlaced=0 / bluray_compat=0 / constrained_intra=0 / bframes=8 / b_pyramid=2 / b_adapt=2 / b_bias=0 / direct=3 / weightb=1 / open_gop=0 / weightp=2 / keyint=240 / keyint_min=23 / scenecut=40 / intra_refresh=0 / rc=2pass / mbtree=0 / bitrate=3000 / ratetol=1.0 / qcomp=0.60 / qpmin=0 / qpmax=69 / qpstep=4 / cplxblur=20.0 / qblur=0.5 / ip_ratio=1.40 / pb_ratio=1.30 / aq=1:1.00
Language                                 : English
Default                                  : Yes
Forced                                   : No
DURATION                                 : 01:50:25.619000000
NUMBER_OF_FRAMES                         : 158856
NUMBER_OF_BYTES                          : 2483295873
_STATISTICS_WRITING_APP                  : mkvmerge v7.0.0 ('Where We Going') 64bit built on Jun  9 2014 15:16:27
_STATISTICS_WRITING_DATE_UTC             : 2014-07-10 21:02:57
_STATISTICS_TAGS                         : BPS DURATION NUMBER_OF_FRAMES NUMBER_OF_BYTES

Audio #1
ID                                       : 2
Format                                   : AC-3
Format/Info                              : Audio Coding 3
Mode extension                           : CM (complete main)
Format settings, Endianness              : Big
Codec ID                                 : A_AC3
Duration                                 : 1h 50mn
Bit rate mode                            : Constant
Bit rate                                 : 192 Kbps
Channel(s)                               : 2 channels
Channel positions                        : Front: L R
Sampling rate                            : 48.0 KHz
Bit depth                                : 16 bits
Compression mode                         : Lossy
Delay relative to video                  : 25ms
Stream size                              : 152 MiB (5%)
Title                                    : DVO [1+1] 2.0 192 Kbps [Hurtom-karvai0][-7ms]
Language                                 : Ukrainian
Default                                  : Yes
Forced                                   : No

Audio #2
ID                                       : 3
Format                                   : AC-3
Format/Info                              : Audio Coding 3
Mode extension                           : CM (complete main)
Format settings, Endianness              : Big
Codec ID                                 : A_AC3
Duration                                 : 1h 50mn
Bit rate mode                            : Constant
Bit rate                                 : 192 Kbps
Channel(s)                               : 2 channels
Channel positions                        : Front: L R
Sampling rate                            : 48.0 KHz
Bit depth                                : 16 bits
Compression mode                         : Lossy
Delay relative to video                  : 25ms
Stream size                              : 152 MiB (5%)
Title                                    : DVO [Novyj] 2.0 192 Kbps [Hurtom-karvai0][-7ms]
Language                                 : Ukrainian
Default                                  : No
Forced                                   : No

Audio #3
ID                                       : 4
Format                                   : AC-3
Format/Info                              : Audio Coding 3
Mode extension                           : CM (complete main)
Format settings, Endianness              : Big
Codec ID                                 : A_AC3
Duration                                 : 1h 50mn
Bit rate mode                            : Constant
Bit rate                                 : 256 Kbps
Channel(s)                               : 2 channels
Channel positions                        : Front: L R
Sampling rate                            : 48.0 KHz
Bit depth                                : 16 bits
Compression mode                         : Lossy
Stream size                              : 202 MiB (7%)
Title                                    : Original 2.0 256 Kbps
Language                                 : English
Default                                  : No
Forced                                   : No

Text
ID                                       : 5
Format                                   : UTF-8
Codec ID                                 : S_TEXT/UTF8
Codec ID/Info                            : UTF-8 Plain Text
Title                                    : Eng full
Language                                 : English
Default                                  : No
Forced                                   : No

Menu
00:00:00.000                             : en:Chapter 01
00:05:00.000                             : en:Chapter 02
00:10:00.000                             : en:Chapter 03
00:15:00.000                             : en:Chapter 04
00:20:00.000                             : en:Chapter 05
00:25:00.000                             : en:Chapter 06
00:30:00.000                             : en:Chapter 07
00:35:00.000                             : en:Chapter 08
00:40:00.000                             : en:Chapter 09
00:45:00.000                             : en:Chapter 10
00:50:00.000                             : en:Chapter 11
00:55:00.000                             : en:Chapter 12
01:00:00.000                             : en:Chapter 13
01:05:00.000                             : en:Chapter 14
01:10:00.000                             : en:Chapter 15
01:15:00.000                             : en:Chapter 16
01:20:00.000                             : en:Chapter 17
01:25:00.000                             : en:Chapter 18
01:30:00.000                             : en:Chapter 19
01:35:00.000                             : en:Chapter 20
01:40:00.000                             : en:Chapter 21
01:45:00.000                             : en:Chapter 22
01:50:00.000                             : en:Chapter 23


[info]: frame I:1428 Avg QP:17.04 size: 95827
[info]: frame P:39091 Avg QP:20.02 size: 30461
[info]: frame B:118337 Avg QP:21.35 size: 9766



Джерела та подяки: &
ріп відео, оригінальні звук та субтитри - Lefevr (MediaClub); українські доріжки - karvai0 - зведення, Tanat13, OlegCena, POMEO - запис з ТБ (всі - Гуртом).


ЗАЛИШАЙТЕСЬ ЯКОМОГА ДОВШЕ НА РОЗДАЧІ!

СКАЧАВ САМ - ДАЙ СКАЧАТИ ІНШИМ


Срібний реліз (на рейтинг впливає 50% завантаженого)
 Трекер:    Зареєстрований   

Завантажити / скачати фільм українською



відео для новачків



 Зареєстрований:   2014-07-11 22:43
 Розмір:   5.52 GB 
 Оцінка фільму:   4.4/10 (Голосів: 16)
   
Anonymous 







2014-07-12 00:42  
720p
Ваш часовий пояс: GMT + 2 Години

Нова тема   Відповісти