Завантажити та скачати торренти українською


Ґодзілла / Годзилла / Godzilla / Gojira (1954) 1080р Ukr/Jap | sub Eng

Нові коментарі

Нова тема   Відповісти
Останній раз роздавалося Sando7 (2016-12-07)
Автор Повідомлення
Ukr Voice Team 
Відео Гуртом - озвучення
Відео Гуртом - озвучення


З нами з: 31.12.13
Востаннє: 11.08.15
Повідомлень: 61

2014-07-10 20:30  
Ґодзілла / Годзилла / Godzilla / Gojira (1954) 1080р Ukr/Jap | sub Eng

Ґодзілла / Годзилла / Godzilla / Gojira (1954) 1080р Ukr/Jap | sub Eng


Жанр: триллер, наукова фантастика, жахи
Країна: Японія



Кінокомпанія: Toho Film (Eiga) Co. Ltd.
Режисер: Ішіро Гонда / Ishirô Honda
Актори: Такаші Шімура, Акігіко Гірата, Акіра Такарада / Takashi Shimura, Akihiko Hirata, Akira Takarada та ін.

Сюжет:
Американські ядерні випробування ведуть до створення, здавалося б, непереборного, динозавро-звіра.


Тривалість: 01:36:29
Якість:
Відео:
кодек:
розмір кадру: 1 480 х 1 080
бітрейт: 14.3 мб/с

Аудіо # 1:
мова: українська
переклад: одноголосий закадровий | UkrVoiceTeam
кодек: 2.0
бітрейт: 448 кб/с
переклад та озвучення: Остап Карвацький

Аудіо # 2:
мова: японська
переклад: оригінал
кодек: 1.0
бітрейт: 448 кб/с

Субтитри:
мова: англійська
тип: програмні (м'які)
формат: *.srt

Джерело озвучення: UkrVoiceTeam
Онлайн семпл
MediaInfo
General
Unique ID : 212758257622660976189994385785259886440 (0xA00FBFFB392B936C9DE03342C6F10768)
Complete name : D:\Завантаження\Озвучене\Godzilla (1954) 1080p [Ukr-Jap] [UkrVoiceTeam].mkv
Format : Matroska
Format version : Version 4 / Version 2
File size : 9.67 GiB
Duration : 1h 36mn
Overall bit rate : 14.3 Mbps
Movie name : Годзилла / Godzilla / Gojira / 1954 / ориг.япон. версия
Encoded date : UTC 2014-07-10 17:53:16
Writing application : mkvmerge v6.6.0 ('The Edge Of The In Between') built on Dec 1 2013 17:55:00
Writing library : libebml v1.3.0 + libmatroska v1.4.1

Video
ID : 1
Format : AVC
Format/Info : Advanced Video Codec
Format profile : [email protected]
Format settings, CABAC : Yes
Format settings, ReFrames : 5 frames
Codec ID : V_MPEG4/ISO/AVC
Duration : 1h 36mn
Bit rate : 13.4 Mbps
Width : 1 480 pixels
Height : 1 080 pixels
Display aspect ratio : 1.370
Frame rate mode : Constant
Frame rate : 23.976 fps
Color space : YUV
Chroma subsampling : 4:2:0
Bit depth : 8 bits
Scan type : Progressive
Bits/(Pixel*Frame) : 0.351
Stream size : 8.87 GiB (92%)
Title : Godzilla (1954) BluRay Criterion Collection 1080p
Writing library : core 120 r2119 0637cd6
Encoding settings : cabac=1 / ref=5 / deblock=1:-3:-3 / analyse=0x3:0x113 / me=umh / subme=11 / psy=1 / psy_rd=1.10:0.15 / mixed_ref=1 / me_range=48 / chroma_me=1 / trellis=2 / 8x8dct=1 / cqm=0 / deadzone=21,11 / fast_pskip=0 / chroma_qp_offset=-2 / threads=12 / sliced_threads=0 / nr=0 / decimate=1 / interlaced=0 / bluray_compat=0 / constrained_intra=0 / bframes=6 / b_pyramid=2 / b_adapt=2 / b_bias=0 / direct=3 / weightb=1 / open_gop=0 / weightp=2 / keyint=250 / keyint_min=23 / scenecut=40 / intra_refresh=0 / rc_lookahead=60 / rc=2pass / mbtree=1 / bitrate=13450 / ratetol=1.0 / qcomp=0.70 / qpmin=0 / qpmax=69 / qpstep=4 / cplxblur=20.0 / qblur=0.5 / vbv_maxrate=45000 / vbv_bufsize=40000 / nal_hrd=none / ip_ratio=1.40 / aq=2:0.90
Language : English
Default : No
Forced : No

Audio #1
ID : 2
Format : AC-3
Format/Info : Audio Coding 3
Mode extension : CM (complete main)
Format settings, Endianness : Big
Codec ID : A_AC3
Duration : 1h 36mn
Bit rate mode : Constant
Bit rate : 448 Kbps
Channel(s) : 2 channels
Channel positions : Front: L R
Sampling rate : 48.0 KHz
Bit depth : 16 bits
Compression mode : Lossy
Stream size : 309 MiB (3%)
Title : UkrVoiceTeam
Language : Ukrainian
Default : Yes
Forced : Yes

Audio #2
ID : 3
Format : AC-3
Format/Info : Audio Coding 3
Mode extension : CM (complete main)
Format settings, Endianness : Big
Codec ID : A_AC3
Duration : 1h 36mn
Bit rate mode : Constant
Bit rate : 448 Kbps
Channel(s) : 1 channel
Channel positions : Front: C
Sampling rate : 48.0 KHz
Bit depth : 16 bits
Compression mode : Lossy
Stream size : 309 MiB (3%)
Title : Оригінал
Language : Japanese
Default : No
Forced : No

Text
ID : 4
Format : UTF-8
Codec ID : S_TEXT/UTF8
Codec ID/Info : UTF-8 Plain Text
Language : English
Default : No
Forced : No
Скріншоти



Джерело:
Особиста оцінка: 10 - без зайвих вагань рекомендую всім!


Авторський реліз (завантажувати можна без реєстрації)
 Трекер:    Зареєстрований   

Завантажити / скачати фільм українською



відео для новачків



 Зареєстрований:   2014-07-10 20:30
 Розмір:   9.67 GB 
 Оцінка фільму:   10/10 (Голосів: 4)
 Godzilla (1954) BDRip 1080p x264 [Ukr-Jap] [UkrVoiceTeam]
   
Інші релізи
   Ґодзілла / Годзилла / Godzilla / Gojira (1954) Ukr Voice Team  3 / 0   1.32 GB   2014-07-10 17:18 
bohun 
VIP


З нами з: 21.03.09
Востаннє: 06.12.16
Повідомлень: 271

2014-07-10 22:45  
По скріншотах склалось враження, що люди весь час сидять і дивляться телевізор Happy
ukrayinaponaduse 
Новенький


З нами з: 30.04.12
Востаннє: 23.09.14
Повідомлень: 2

2014-09-08 00:30  
Скільки вже фільмів знято про Годзіллу, а цей, перший, і досі вважається найкращим.
Чи ліпше сказати, найвизначнішим з-поміж інших. Рекомендую

Ваш часовий пояс: GMT + 2 Години

Нова тема   Відповісти