Завантажити та скачати торренти українською


Скарб / Holes (2003) 1080p Ukr/Eng | Sub Eng

Нові коментарі

Нова тема   Відповісти
Автор Повідомлення
Anonymous 







2014-07-08 21:03  
Скарб / Holes (2003) 1080p Ukr/Eng | Sub Eng



Жанр: пригодницький, комедія, драма, мелодрама, сімейний, детектив
Країна: США



Кінокомпанія: Walt Disney Pictures, Walden Media, Chicago Pacific Entertainment
Режисер: Ендрю Девіс / Andrew Davis
Актори: Сіґурні Вівер / Sigourney Weaver, Джон Войт / Jon Voight, Шиа ЛаБеф / Shia LaBeouf, Тім Блейк Нельсон / Tim Blake Nelson, Хлео Томас / Khleo Thomas, Джейк М. Сміт / Jake M. Smith, Байрон Коттон / Byron Cotton, Брендан Джеффресон / Brendan Jefferson, Міґель Кастро / Miguel Castro, Макс Кеш / Max Kasch

Сюжет:
Стенлі помилково звинуватили у крадіжці кросівок і відправили до трудового табору у техаській пустелі. Вихователі там "загартовують характер" підлітків дивним покаранням. Хлопці риють ями у висушеній сонцем землі, але не знають, що насправді їх використовують для пошуку таємничого скарбу. Однак, Стенлі вдається знайти загадковий зв'язок між скарбами та прокляттям, яке вже довгі роки переслідує його сім'ю…


Рейтинг MPAA: PG - рекомендується присутність батьків
Вікова категорія: 12+

Тривалість: 01:57:24
Якість: 1080p
Відео:
кодек:
розмір кадру: 1920 x 1036
бітрейт: 5181 кбіт/с

Аудіо # 1:
мова: українська - Так Треба Продакшн
переклад: багатоголосий закадровий
ролі озвучили: Людмила Чиншева, Юрій Сосков, Володимир Терещук, Євген Пашин
кодек: 2.0
бітрейт: 192 кбіт/с

Аудіо # 2:
мова: англійська
переклад: оригінал
кодек: 5.1
бітрейт: 448 кбіт/с

Субтитри:
мова: англійська
тип: програмні (м'які)
формат: *.srt
MediaInfo
Код:
General
Unique ID                                : 221905010091894172063529496232311029443 (0xA6F159B2258ECF2BACD88AFB8FEA7EC3)
Complete name                            : Holes (2003) [Ukr,Eng sub.Eng] 1080p [Hurtom].mkv
Format                                   : Matroska
Format version                           : Version 4 / Version 2
File size                                : 4.87 GiB
Duration                                 : 1h 57mn
Overall bit rate                         : 5 940 Kbps
Movie name                               : Скарб / Holes / Клад (2003) 1080p [Hurtom]
Encoded date                             : UTC 2014-07-08 18:30:26
Writing application                      : mkvmerge v7.0.0 ('Where We Going') 64bit built on Jun  9 2014 15:16:27
Writing library                          : libebml v1.3.0 + libmatroska v1.4.1
DURATION                                 : 01:57:22.720000000
NUMBER_OF_FRAMES                         : 220085
NUMBER_OF_BYTES                          : 169025280
_STATISTICS_WRITING_APP                  : mkvmerge v7.0.0 ('Where We Going') 64bit built on Jun  9 2014 15:16:27
_STATISTICS_WRITING_DATE_UTC             : 2014-07-08 18:30:26
_STATISTICS_TAGS                         : BPS DURATION NUMBER_OF_FRAMES NUMBER_OF_BYTES

Video
ID                                       : 1
Format                                   : AVC
Format/Info                              : Advanced Video Codec
Format profile                           : [email protected]
Format settings, CABAC                   : Yes
Format settings, ReFrames                : 4 frames
Codec ID                                 : V_MPEG4/ISO/AVC
Duration                                 : 1h 57mn
Bit rate                                 : 5 181 Kbps
Width                                    : 1 920 pixels
Height                                   : 1 036 pixels
Display aspect ratio                     : 1.85:1
Frame rate mode                          : Constant
Frame rate                               : 23.976 fps
Color space                              : YUV
Chroma subsampling                       : 4:2:0
Bit depth                                : 8 bits
Scan type                                : Progressive
Bits/(Pixel*Frame)                       : 0.109
Stream size                              : 4.25 GiB (87%)
Title                                    : Скарб / Holes / Клад (2003) 1080p [Rutracker-Pigy]
Language                                 : English
Default                                  : Yes
Forced                                   : No
Color primaries                          : BT.709
Transfer characteristics                 : BT.709
Matrix coefficients                      : BT.709

Audio #1
ID                                       : 2
Format                                   : AC-3
Format/Info                              : Audio Coding 3
Mode extension                           : CM (complete main)
Format settings, Endianness              : Big
Codec ID                                 : A_AC3
Duration                                 : 1h 57mn
Bit rate mode                            : Constant
Bit rate                                 : 192 Kbps
Channel(s)                               : 2 channels
Channel positions                        : Front: L R
Sampling rate                            : 48.0 KHz
Bit depth                                : 16 bits
Compression mode                         : Lossy
Stream size                              : 161 MiB (3%)
Title                                    : MVO [TakTrebaProduction-K1] 2.0 192 Kbps [Hurtom-karvai0]
Language                                 : Ukrainian
Default                                  : Yes
Forced                                   : No

Audio #2
ID                                       : 3
Format                                   : AC-3
Format/Info                              : Audio Coding 3
Mode extension                           : CM (complete main)
Format settings, Endianness              : Big
Codec ID                                 : A_AC3
Duration                                 : 1h 57mn
Bit rate mode                            : Constant
Bit rate                                 : 448 Kbps
Channel(s)                               : 6 channels
Channel positions                        : Front: L C R, Side: L R, LFE
Sampling rate                            : 48.0 KHz
Bit depth                                : 16 bits
Compression mode                         : Lossy
Stream size                              : 376 MiB (8%)
Title                                    : Original 5.1 448 Kbps
Language                                 : English
Default                                  : No
Forced                                   : No

Text
ID                                       : 4
Format                                   : UTF-8
Codec ID                                 : S_TEXT/UTF8
Codec ID/Info                            : UTF-8 Plain Text
Title                                    : Eng full
Language                                 : English
Default                                  : No
Forced                                   : No




Джерела та подяки: &
відео, оригінальні звук та субтитри - Pigy (рутрекер); українська доріжка - karvai0 - зведення, Sando7, OlegCena, POMEO - запис з ТБ (всі - Гуртом).


ЗАЛИШАЙТЕСЬ ЯКОМОГА ДОВШЕ НА РОЗДАЧІ!

СКАЧАВ САМ - ДАЙ СКАЧАТИ ІНШИМ


Срібний реліз (на рейтинг впливає 50% завантаженого)
 Трекер:    Зареєстрований   

Завантажити / скачати фільм українською



відео для новачків



 Зареєстрований:   2014-07-08 21:03
 Розмір:   4.87 GB 
 Оцінка фільму:   4.2/10 (Голосів: 17)
   
Інші релізи
   Скарб / Holes (2003) AVC Ukr/Eng | Sub Eng igor911  2 / 0   2.57 GB   2014-07-08 21:48 
   Скарб / Holes (2003) Ukr/Eng | Sub Eng karvai0  2 / 0   2.18 GB   2014-07-08 13:07 
Ваш часовий пояс: GMT + 2 Години

Нова тема   Відповісти