Завантажити та скачати торренти українською


Кодекс мовчання / Code of Silence (1985) 720p 2xUkr/Eng | Sub Eng

Нові коментарі

Нова тема   Відповісти
Автор Повідомлення
Anonymous 







2014-07-07 19:52  
Кодекс мовчання / Code of Silence (1985) 720p 2xUkr/Eng | Sub Eng

Кодекс мовчання / Code of Silence (1985) 720p 2xUkr/Eng | Sub Eng

Оригінальні постери




повнорозмірні зображення відкриються по кліку (з натиснутим CTRL чи кліком середньою кнопкою мишки - у новій вкладці)


Жанр: бойовик, трилер, драма, кримінал
Країна: США



Кінокомпанія: Orion Pictures, Raymond Wagner Productions
Режисер: Ендрю Девіс / Andrew Davis
Актори: Чак Норріс / Chuck Norris, Генрі Сільва / Henry Silva, Берт Ремсен / Bert Remsen, Майк Дженовезе / Mike Genovese, Нейтан Девіс / Nathan Davis, Ральф Фуді / Ralph Foody, Аллен Хемілтон / Allen Hamilton, Рон Енрікез / Ron Henriquez, Моллі Хейген / Molly Hagan та інші

Сюжет:
Чергова операція поліції Чикаго планувалася особливо ретельно. Справа того коштувала: нарешті з'явилася можливість взяти на місці злочину сумнозвісну нарко-банду Комачо. Але у момент передачі «товару» на місці операції з'являються представники конкуруючого угрупування — люди Тоні Луна. Зав'язується перестрілка, в результаті якої гинуть два офіцери, поранений сам Камачо, а партія наркотиків безслідно зникає. Знайти пропажу доручено детективу Едді Кьюсаку, який вирішує діяти украй обережно і насамперед встановлює спостереження за Даяною — дочкою Тоні Луни.


Рейтинг MPAA: R - особам до 17 років обов'язкова присутність батьків або дорослого опікуна
Вікова категорія: 16+

Тривалість: 01:40:49
Якість: 720p
Відео:
кодек:
розмір кадру: 1280 х 680
бітрейт: 9109 кбіт/с [crf=18]

Аудіо # 1:
мова: українська
переклад: багатоголосий закадровий
ролі озвучили: Юрій Гребельник, Роман Чорний, Дмитро Терещук та один жіночий голос
кодек: 2.0
бітрейт: 192 кбіт/с

Аудіо # 1:
мова: українська
переклад: багатоголосий закадровий
ролі озвучили: Анатолій Зіновенко, Юрій Гребельник, Володимир Терещук та один жіночий голос
кодек: 2.0
бітрейт: 192 кбіт/с

Аудіо # 2:
мова: англійська
переклад: оригінал
кодек: 1.0
бітрейт: 768 кбіт/с

Субтитри:
мова: англійська
тип: програмні (м'які)
формат: *.srt

Збережено оригінальні розділи, як на Blu-ray.
MediaInfo
Код:
Complete name               : Code of Silence (1985) [2xUkr,Eng sub.Eng] 720p [Hurtom].mkv
Format                      : Matroska
Format version              : Version 4 / Version 2
File size                   : 7.37 GiB
Duration                    : 1 h 40 min
Overall bit rate            : 10.5 Mb/s
Movie name                  : Кодекс мовчання / Code of Silence (1985) [2xUkr,Eng sub.Eng] 720p [Hurtom]
Writing library             : libebml v1.3.4 + libmatroska v1.4.5
Cover                       : Yes
Attachments                 : cover.jpg

Video
ID                          : 1
Format                      : AVC
Format/Info                 : Advanced Video Codec
Format profile              : [email protected]
Format settings, CABAC      : Yes
Format settings, ReFrames   : 8 frames
Codec ID                    : V_MPEG4/ISO/AVC
Duration                    : 1 h 40 min
Bit rate                    : 9 311 kb/s
Width                       : 1 280 pixels
Height                      : 680 pixels
Display aspect ratio        : 1.882
Frame rate mode             : Constant
Frame rate                  : 23.976 (24000/1001) FPS
Color space                 : YUV
Chroma subsampling          : 4:2:0
Bit depth                   : 8 bits
Scan type                   : Progressive
Bits/(Pixel*Frame)          : 0.446
Stream size                 : 6.56 GiB (89%)
Title                       : Кодекс мовчання / Code of Silence (1985) 720p [CatusKnight]
Writing library             : core 125 r2200 999b753
Encoding settings           : cabac=1 / ref=8 / deblock=1:-3:-3 / analyse=0x3:0x113 / me=umh / subme=11 / psy=1 / psy_rd=1.00:0.05 / mixed_ref=1 / me_range=32 / chroma_me=1 / trellis=2 / 8x8dct=1 / cqm=0 / deadzone=21,11 / fast_pskip=1 / chroma_qp_offset=-3 / threads=6 / lookahead_threads=1 / sliced_threads=0 / nr=0 / decimate=1 / interlaced=0 / bluray_compat=0 / constrained_intra=0 / bframes=10 / b_pyramid=2 / b_adapt=2 / b_bias=0 / direct=1 / weightb=1 / open_gop=0 / weightp=2 / keyint=250 / keyint_min=23 / scenecut=40 / intra_refresh=0 / rc_lookahead=50 / rc=crf / mbtree=0 / crf=18.0 / qcomp=0.60 / qpmin=0 / qpmax=69 / qpstep=4 / vbv_maxrate=50000 / vbv_bufsize=62500 / crf_max=0.0 / nal_hrd=none / ip_ratio=1.40 / pb_ratio=1.30 / aq=1:0.90
Language                    : English
Default                     : Yes
Forced                      : No

Audio #1
ID                          : 2
Format                      : AC-3
Format/Info                 : Audio Coding 3
Mode extension              : CM (complete main)
Format settings, Endianness : Big
Codec ID                    : A_AC3
Duration                    : 1 h 40 min
Bit rate mode               : Constant
Bit rate                    : 192 kb/s
Channel(s)                  : 2 channels
Channel positions           : Front: L R
Sampling rate               : 48.0 kHz
Frame rate                  : 31.250 FPS (1536 spf)
Compression mode            : Lossy
Stream size                 : 138 MiB (2%)
Title                       : MVO [AMC] 2.0 192 Kbps [Hurtom-taraskill1]
Language                    : Ukrainian
Default                     : Yes
Forced                      : No

Audio #2
ID                          : 3
Format                      : AC-3
Format/Info                 : Audio Coding 3
Mode extension              : CM (complete main)
Format settings, Endianness : Big
Codec ID                    : A_AC3
Duration                    : 1 h 40 min
Bit rate mode               : Constant
Bit rate                    : 192 kb/s
Channel(s)                  : 2 channels
Channel positions           : Front: L R
Sampling rate               : 48.0 kHz
Frame rate                  : 31.250 FPS (1536 spf)
Compression mode            : Lossy
Stream size                 : 138 MiB (2%)
Title                       : MVO [Enter film] 2.0 192 Kbps [Hurtom-taraskill1]
Language                    : Ukrainian
Default                     : No
Forced                      : No

Audio #3
ID                          : 4
Format                      :
Format/Info                 : Digital Theater Systems
Mode                        : 16
Format settings, Endianness : Big
Codec ID                    : A_DTS
Duration                    : 1 h 40 min
Bit rate mode               : Constant
Bit rate                    : 768 kb/s
Channel(s)                  : 1 channel
Channel positions           : Front: C
Sampling rate               : 48.0 kHz
Frame rate                  : 93.750 FPS (512 spf)
Bit depth                   : 24 bits
Compression mode            : Lossy
Delay relative to video     : 11 ms
Stream size                 : 554 MiB (7%)
Title                       : Original, 1.0 768 Kbps
Language                    : English
Default                     : No
Forced                      : No

Text
ID                          : 5
Format                      : UTF-8
Codec ID                    : S_TEXT/UTF8
Codec ID/Info               : UTF-8 Plain Text
Duration                    : 1 h 32 min
Bit rate                    : 39 b/s
Count of elements           : 746
Stream size                 : 27.0 KiB (0%)
Title                       : Eng full
Language                    : English
Default                     : No
Forced                      : No

Menu
00:00:00.000                : en:Logos/Title/Credits
00:03:00.000                : en:"Okay, Home Team!"
00:08:39.234                : en:Painting With Bullets
00:14:37.134                : en:Gunned Youth
00:18:10.034                : en:Unhappy Birthday
00:20:17.701                : en:Threats & Thugs
00:26:33.335                : en:"Police Prowler"
00:28:32.269                : en:Zoo Stalking
00:34:35.903                : en:Artful Dodging
00:38:18.070                : en:"Nobody Threatens Me!"
00:42:16.603                : en:The War Begins
00:44:47.436                : en:Girl On The Run
00:48:25.036                : en:He's No Angel
00:51:52.137                : en:A Little Comfort
00:54:44.322                : en:Robbing The Wrong Bar
00:58:27.704                : en:Veteran/Rookie Talk
01:03:43.438                : en:Harsh Reality
01:09:05.339                : en:No Backup
01:10:47.240                : en:One Man Show
01:15:05.273                : en:Luna Rises & Falls
01:21:05.273                : en:Finally Some Backup
01:26:25.374                : en:Demonstrating Power
01:32:21.075                : en:Safe At Last
01:36:34.042                : en:End Credits




Джерела та подяки: &
ріп відео, оригінальні звук та субтитри - CatusKnight (рутрекер); українські доріжки - taraskill1 - зведення, sando7, slavik_v_z - запис з ТБ (обоє - Гуртом).


ЗАЛИШАЙТЕСЬ ЯКОМОГА ДОВШЕ НА РОЗДАЧІ!
СКАЧАВ САМ - ДАЙ СКАЧАТИ ІНШИМ


Срібний реліз (на рейтинг впливає 50% завантаженого)
 Трекер:    Зареєстрований   

Завантажити / скачати фільм українською



відео для новачків



 Зареєстрований:   2016-08-30 15:58
 Розмір:   7.37 GB 
 Оцінка фільму:   5/10 (Голосів: 18)
   
Інші релізи
   Кодекс мовчання / Code of Silence (1985) 2xUkr/Eng taraskill1  2 / 0   1.59 GB   2016-08-30 09:16 
Anonymous 







2016-08-30 16:00  
Реліз оновлено!
Додано українське озвучення від AMC та перезведено доріжку від "Enter-фільм"

P.S. "золото" на тиждень для заохочення підтримки релізу.

Ваш часовий пояс: GMT + 2 Години

Нова тема   Відповісти