Завантажити та скачати торренти українською


Сенсація / Scoop (2006) 1080p Ukr/Eng | Sub Ukr/Eng

Нові коментарі

Нова тема   Відповісти
Автор Повідомлення
Anonymous 







2014-07-05 15:20  
Сенсація / Scoop (2006) 1080p Ukr/Eng | Sub Ukr/Eng



Жанр: комедія, детектив
Країна: Великобританія, США



Кінокомпанія: BBC Films, Ingenious Film Partners, Phoenix Wiley
Режисер: Вуді Аллен / Woody Allen
Актори: Скарлет Йогансон / Scarlett Johansson, Г'ю Джекмен / Hugh Jackman, Ромола Ґарай / Romola Garai, Ієн МакШейн / Ian McShane, Кевін МакНeллі / Kevin McNally, Вуді Аллен / Woody Allen, Метт Дей / Matt Day, Ентоні Гед / Anthony Head, Джим Данк / Jim Dunk, Роберт Баферст / Robert Bathurst

Сюжет:
Загиблого британського журналіста Джо Стромбела оплакують його друзі і колеги, але навіть у чистилищі Джо не покидають думки про роботу, адже він тільки що дізнався сенсаційну новину про вбивцю, що орудує в Лондоні. Як же йому тепер зробити роботу, яка вимагає стільки біганини?
За допомогою цілком живої Сондри Пранскі. Сондра - американська студентка, що вивчає журналістику, приїжджає до друзів у Лондон. Під час виступу американського мага Сіда Вотермана, Сондра бачить і чує Джо. Він розповідає їй про сенсаційну новину, яка стане найбільшим репортажем в її житті, переконуючи відправитися на її пошуки. Сондра кидається в погоню за сенсацією...


Рейтинг MPAA: PG-13 - дітям до 13 років перегляд не бажаний
Вікова категорія: 12+

Тривалість: 01:35:33
Якість: 1080p
Відео:
кодек:
розмір кадру: 1920 x 1080
бітрейт: 11,5 Мбіт/с [crf=19.4]

Аудіо # 1:
мова: українська
переклад: багатоголосий закадровий
кодек: 2.0
бітрейт: 192 кбіт/с
Інформація про озвучення
Ролі озвучили: Юрій Гребельник (Вуді Аллен), Роман Семисал (Г’ю Джекмен), Дмитро Терещук та один жіночий голос

Фільм перекладено і озвучено студією Так Треба Продакшн на замовлення телекомпанії Інтер
Аудіо # 2:
мова: англійська
переклад: оригінал
кодек: 5.1
бітрейт: 640 кбіт/с

Субтитри # 1:
мова: українська
тип: програмні (м'які)
формат: *.srt

Субтитри # 2:
мова: англійська
тип: програмні (м'які)
формат: *.srt

Збережено оригінальні розділи, як на Blu-ray.
MediaInfo та log
Код:
General
Unique ID                                : 227869123975313762984127691707643791339 (0xAB6DFF3693CDD7D99D5A82A2BC7F07EB)
Complete name                            : Scoop (2006) [Ukr,Eng sub.Ukr,Eng] 1080p [Hurtom].mkv
Format                                   : Matroska
Format version                           : Version 4 / Version 2
File size                                : 8.18 GiB
Duration                                 : 1h 35mn
Overall bit rate                         : 12.3 Mbps
Movie name                               : Сенсація / Scoop (2006) 1080p [Hurtom]
Encoded date                             : UTC 2014-07-05 12:01:12
Writing application                      : mkvmerge v7.0.0 ('Where We Going') 64bit built on Jun  9 2014 15:16:27
Writing library                          : libebml v1.3.0 + libmatroska v1.4.1
DURATION                                 : 01:31:57.142000000
NUMBER_OF_FRAMES                         : 1407
NUMBER_OF_BYTES                          : 86467
_STATISTICS_WRITING_APP                  : mkvmerge v7.0.0 ('Where We Going') 64bit built on Jun  9 2014 15:16:27
_STATISTICS_WRITING_DATE_UTC             : 2014-07-05 12:01:12
_STATISTICS_TAGS                         : BPS DURATION NUMBER_OF_FRAMES NUMBER_OF_BYTES

Video
ID                                       : 1
Format                                   : AVC
Format/Info                              : Advanced Video Codec
Format profile                           : [email protected]
Format settings, CABAC                   : Yes
Format settings, ReFrames                : 4 frames
Codec ID                                 : V_MPEG4/ISO/AVC
Duration                                 : 1h 35mn
Bit rate                                 : 11.2 Mbps
Width                                    : 1 920 pixels
Height                                   : 1 080 pixels
Display aspect ratio                     : 16:9
Frame rate mode                          : Constant
Frame rate                               : 23.976 fps
Color space                              : YUV
Chroma subsampling                       : 4:2:0
Bit depth                                : 8 bits
Scan type                                : Progressive
Bits/(Pixel*Frame)                       : 0.225
Stream size                              : 7.46 GiB (91%)
Title                                    : Сенсація / Scoop / Сенсация (2006) 1080p [msltel (STarankov)]
Writing library                          : core 138 r2358 9e941d1
Encoding settings                        : cabac=1 / ref=4 / deblock=1:-1:-1 / analyse=0x3:0x113 / me=umh / subme=10 / psy=1 / psy_rd=1.00:0.15 / mixed_ref=1 / me_range=24 / chroma_me=1 / trellis=2 / 8x8dct=1 / cqm=0 / deadzone=21,11 / fast_pskip=0 / chroma_qp_offset=-3 / threads=6 / lookahead_threads=1 / sliced_threads=0 / nr=0 / decimate=1 / interlaced=0 / bluray_compat=0 / constrained_intra=0 / bframes=6 / b_pyramid=2 / b_adapt=2 / b_bias=0 / direct=1 / weightb=1 / open_gop=0 / weightp=2 / keyint=230 / keyint_min=23 / scenecut=40 / intra_refresh=0 / rc_lookahead=40 / rc=crf / mbtree=0 / crf=19.4 / qcomp=0.60 / qpmin=0 / qpmax=69 / qpstep=4 / vbv_maxrate=50000 / vbv_bufsize=62500 / crf_max=0.0 / nal_hrd=none / ip_ratio=1.40 / pb_ratio=1.30 / aq=1:1.00
Language                                 : English
Default                                  : Yes
Forced                                   : No

Audio #1
ID                                       : 2
Format                                   : AC-3
Format/Info                              : Audio Coding 3
Mode extension                           : CM (complete main)
Format settings, Endianness              : Big
Codec ID                                 : A_AC3
Duration                                 : 1h 35mn
Bit rate mode                            : Constant
Bit rate                                 : 192 Kbps
Channel(s)                               : 2 channels
Channel positions                        : Front: L R
Sampling rate                            : 48.0 KHz
Bit depth                                : 16 bits
Compression mode                         : Lossy
Delay relative to video                  : 26ms
Stream size                              : 131 MiB (2%)
Title                                    : MVO [Inter,K1-TakTrebaProduction] 2.0 192 Kbps [Hurtom-karvai0][-6ms]
Language                                 : Ukrainian
Default                                  : Yes
Forced                                   : No

Audio #2
ID                                       : 3
Format                                   : AC-3
Format/Info                              : Audio Coding 3
Mode extension                           : CM (complete main)
Format settings, Endianness              : Big
Codec ID                                 : A_AC3
Duration                                 : 1h 35mn
Bit rate mode                            : Constant
Bit rate                                 : 640 Kbps
Channel(s)                               : 6 channels
Channel positions                        : Front: L C R, Side: L R, LFE
Sampling rate                            : 48.0 KHz
Bit depth                                : 16 bits
Compression mode                         : Lossy
Stream size                              : 437 MiB (5%)
Title                                    : Original 5.1 640 Kbps
Language                                 : English
Default                                  : No
Forced                                   : No

Text #1
ID                                       : 4
Format                                   : UTF-8
Codec ID                                 : S_TEXT/UTF8
Codec ID/Info                            : UTF-8 Plain Text
Title                                    : Ukr full
Language                                 : Ukrainian
Default                                  : No
Forced                                   : No

Text #2
ID                                       : 5
Format                                   : UTF-8
Codec ID                                 : S_TEXT/UTF8
Codec ID/Info                            : UTF-8 Plain Text
Title                                    : Eng full
Language                                 : English
Default                                  : No
Forced                                   : No

Menu
00:00:00.000                             : :Chapter 01
00:09:07.838                             : :Chapter 02
00:20:41.531                             : :Chapter 03
00:29:39.777                             : :Chapter 04
00:36:29.103                             : :Chapter 05
00:44:04.224                             : :Chapter 06
00:48:54.431                             : :Chapter 07
00:55:28.408                             : :Chapter 08
01:04:45.339                             : :Chapter 09
01:15:31.318                             : :Chapter 10
01:24:52.086                             : :Chapter 11
01:32:32.213                             : :Chapter 12
01:35:09.370                             : :Chapter 13

---[Information] [02.03.2014 17:44:51] raw [info]: 1920x1080p 1:1 @ 24000/1001 fps (cfr)
---[Information] [02.03.2014 17:44:51] [info]: using SAR=1/1
---[Information] [02.03.2014 17:44:51] [info]: using cpu capabilities: MMX2 SSE2Fast SSSE3 SSE4.2
---[Information] [02.03.2014 17:44:51] [info]: profile High, level 4.1
---[Information] [03.03.2014 4:35:00] [info]: frame I:776 Avg QP:18.11 size:182601
---[Information] [03.03.2014 4:35:00] [info]: frame P:25547 Avg QP:19.70 size:113271
---[Information] [03.03.2014 4:35:00] [info]: frame B:111135 Avg QP:22.00 size: 46352
---[Information] [03.03.2014 4:35:00] [info]: consecutive B-frames: 0.9% 0.5% 3.1% 8.7% 11.4% 70.5% 4.8%
---[Information] [03.03.2014 4:35:00] [info]: mb I I16..4: 9.9% 80.0% 10.1%
---[Information] [03.03.2014 4:35:00] [info]: mb P I16..4: 1.5% 26.6% 1.3% P16..4: 35.8% 22.4% 8.0% 0.0% 0.0% skip: 4.3%
---[Information] [03.03.2014 4:35:00] [info]: mb B I16..4: 0.2% 2.6% 0.1% B16..8: 57.4% 13.4% 2.2% direct: 5.6% skip:18.6% L0:48.0% L1:41.4% BI:10.6%
---[Information] [03.03.2014 4:35:00] [info]: 8x8 transform intra:89.8% inter:65.2%
---[Information] [03.03.2014 4:35:00] [info]: coded y,uvDC,uvAC intra: 96.2% 85.1% 44.3% inter: 42.0% 29.7% 1.1%
---[Information] [03.03.2014 4:35:00] [info]: i16 v,h,dc,p: 27% 8% 43% 23%
---[Information] [03.03.2014 4:35:00] [info]: i8 v,h,dc,ddl,ddr,vr,hd,vl,hu: 12% 9% 13% 9% 11% 11% 11% 11% 13%
---[Information] [03.03.2014 4:35:00] [info]: i4 v,h,dc,ddl,ddr,vr,hd,vl,hu: 15% 10% 6% 8% 12% 14% 12% 11% 12%
---[Information] [03.03.2014 4:35:00] [info]: i8c dc,h,v,p: 39% 28% 22% 12%
---[Information] [03.03.2014 4:35:00] [info]: Weighted P-Frames: Y:4.7% UV:1.4%
---[Information] [03.03.2014 4:35:00] [info]: ref P L0: 46.6% 12.4% 27.9% 12.2% 0.9% 0.0%
---[Information] [03.03.2014 4:35:00] [info]: ref B L0: 87.7% 9.1% 3.1%
---[Information] [03.03.2014 4:35:00] [info]: ref B L1: 95.7% 4.3%
---[Information] [03.03.2014 4:35:00] [info]: kb/s:11423.71
---[Information] [03.03.2014 4:35:00] encoded 137458 frames, 3.52 fps, 11423.71 kb/s
---[Information] [03.03.2014 4:35:01] Final statistics
---[Information] [03.03.2014 4:35:01] Constant Quality Mode: Quality 19 computed...
---[Information] [03.03.2014 4:35:01] Video Bitrate Obtained (approximate): 11423 kbit/s




Джерела та подяки:
ріп відео, оригінальні звук та субтитри - STarankov; українська доріжка - karvai0 - зведення, Sando7 - запис з ТБ; українські субтитри - надані karvai0, українізований постер - thefir (всі троє - Гуртом).


ЗАЛИШАЙТЕСЬ ЯКОМОГА ДОВШЕ НА РОЗДАЧІ!

СКАЧАВ САМ - ДАЙ СКАЧАТИ ІНШИМ


 Трекер:    Зареєстрований   

Завантажити / скачати фільм українською



відео для новачків



 Зареєстрований:   2014-07-05 15:20
 Розмір:   8.18 GB 
 Оцінка фільму:   3.1/10 (Голосів: 13)
   
Інші релізи
   Сенсація / Scoop (2006) 720p Ukr/Eng | Sub Ukr/Eng igor911  3 / 0   3.99 GB   2014-07-05 15:04 
   Сенсація / Scoop (2006) Ukr/Eng | Sub Ukr/Eng karvai0  2 / 1   1.7 GB   2014-07-04 18:18 
   Сенсація / Scoop (2006) 720p-mini Ukr/Eng | Sub Ukr/Eng ThEO  2 / 0   2.61 GB   2011-07-19 22:48 
Ваш часовий пояс: GMT + 2 Години

Нова тема   Відповісти