Завантажити та скачати торренти українською


Сенсація / Scoop (2006) 720p Ukr/Eng | Sub Ukr/Eng

Нові коментарі

Нова тема   Відповісти
Автор Повідомлення
Anonymous 







2014-07-05 15:04  
Сенсація / Scoop (2006) 720p Ukr/Eng | Sub Ukr/Eng



Жанр: комедія, детектив
Країна: Великобританія, США



Кінокомпанія: BBC Films, Ingenious Film Partners, Phoenix Wiley
Режисер: Вуді Аллен / Woody Allen
Актори: Скарлет Йогансон / Scarlett Johansson, Г'ю Джекмен / Hugh Jackman, Ромола Ґарай / Romola Garai, Ієн МакШейн / Ian McShane, Кевін МакНeллі / Kevin McNally, Вуді Аллен / Woody Allen, Метт Дей / Matt Day, Ентоні Гед / Anthony Head, Джим Данк / Jim Dunk, Роберт Баферст / Robert Bathurst

Сюжет:
Загиблого британського журналіста Джо Стромбела оплакують його друзі і колеги, але навіть у чистилищі Джо не покидають думки про роботу, адже він тільки що дізнався сенсаційну новину про вбивцю, що орудує в Лондоні. Як же йому тепер зробити роботу, яка вимагає стільки біганини?
За допомогою цілком живої Сондри Пранскі. Сондра - американська студентка, що вивчає журналістику, приїжджає до друзів у Лондон. Під час виступу американського мага Сіда Вотермана, Сондра бачить і чує Джо. Він розповідає їй про сенсаційну новину, яка стане найбільшим репортажем в її житті, переконуючи відправитися на її пошуки. Сондра кидається в погоню за сенсацією...


Рейтинг MPAA: PG-13 - дітям до 13 років перегляд не бажаний
Вікова категорія: 12+

Тривалість: 01:35:33
Якість: 720p
Відео:
кодек:
розмір кадру: 1280 x 720
бітрейт: 5031 кбіт/с [crf=19]

Аудіо # 1:
мова: українська
переклад: багатоголосий закадровий
кодек: 2.0
бітрейт: 192 кбіт/с
Інформація про озвучення
Ролі озвучили: Юрій Гребельник (Вуді Аллен), Роман Семисал (Г’ю Джекмен), Дмитро Терещук та один жіночий голос

Фільм перекладено і озвучено студією Так Треба Продакшн на замовлення телекомпанії Інтер
Аудіо # 2:
мова: англійська
переклад: оригінал
кодек: 5.1
бітрейт: 640 кбіт/с

Субтитри # 1:
мова: українська
тип: програмні (м'які)
формат: *.srt

Субтитри # 2:
мова: англійська
тип: програмні (м'які)
формат: *.srt

Збережено оригінальні розділи, як на Blu-ray.
MediaInfo та log
Код:
General
Unique ID                                : 252792502641513605043401536804401036069 (0xBE2E10A7784C172398576D1EE57DBB25)
Complete name                            : Scoop (2006) [Ukr,Eng sub.Ukr,Eng] 720p [Hurtom].mkv
Format                                   : Matroska
Format version                           : Version 4 / Version 2
File size                                : 3.99 GiB
Duration                                 : 1h 35mn
Overall bit rate                         : 5 982 Kbps
Movie name                               : Сенсація / Scoop (2006) 720p [Hurtom]
Encoded date                             : UTC 2014-07-05 11:56:43
Writing application                      : mkvmerge v7.0.0 ('Where We Going') 64bit built on Jun  9 2014 15:16:27
Writing library                          : libebml v1.3.0 + libmatroska v1.4.1
DURATION                                 : 01:31:57.142000000
NUMBER_OF_FRAMES                         : 1407
NUMBER_OF_BYTES                          : 86467
_STATISTICS_WRITING_APP                  : mkvmerge v7.0.0 ('Where We Going') 64bit built on Jun  9 2014 15:16:27
_STATISTICS_WRITING_DATE_UTC             : 2014-07-05 11:56:43
_STATISTICS_TAGS                         : BPS DURATION NUMBER_OF_FRAMES NUMBER_OF_BYTES

Video
ID                                       : 1
Format                                   : AVC
Format/Info                              : Advanced Video Codec
Format profile                           : [email protected]
Format settings, CABAC                   : Yes
Format settings, ReFrames                : 9 frames
Codec ID                                 : V_MPEG4/ISO/AVC
Duration                                 : 1h 35mn
Bit rate                                 : 5 031 Kbps
Width                                    : 1 280 pixels
Height                                   : 720 pixels
Display aspect ratio                     : 16:9
Frame rate mode                          : Constant
Frame rate                               : 23.976 fps
Color space                              : YUV
Chroma subsampling                       : 4:2:0
Bit depth                                : 8 bits
Scan type                                : Progressive
Bits/(Pixel*Frame)                       : 0.228
Stream size                              : 3.36 GiB (84%)
Title                                    : Сенсація / Scoop / Сенсация (2006) 720p [msltel (STarankov)]
Writing library                          : core 138 r2358 9e941d1
Encoding settings                        : cabac=1 / ref=9 / deblock=1:-1:-1 / analyse=0x3:0x113 / me=umh / subme=10 / psy=1 / psy_rd=1.00:0.15 / mixed_ref=1 / me_range=24 / chroma_me=1 / trellis=2 / 8x8dct=1 / cqm=0 / deadzone=21,11 / fast_pskip=0 / chroma_qp_offset=-3 / threads=6 / lookahead_threads=1 / sliced_threads=0 / nr=0 / decimate=1 / interlaced=0 / bluray_compat=0 / constrained_intra=0 / bframes=6 / b_pyramid=2 / b_adapt=2 / b_bias=0 / direct=1 / weightb=1 / open_gop=0 / weightp=2 / keyint=230 / keyint_min=23 / scenecut=40 / intra_refresh=0 / rc_lookahead=40 / rc=crf / mbtree=0 / crf=19.0 / qcomp=0.60 / qpmin=0 / qpmax=69 / qpstep=4 / vbv_maxrate=50000 / vbv_bufsize=62500 / crf_max=0.0 / nal_hrd=none / ip_ratio=1.40 / pb_ratio=1.30 / aq=1:1.00
Language                                 : English
Default                                  : Yes
Forced                                   : No

Audio #1
ID                                       : 2
Format                                   : AC-3
Format/Info                              : Audio Coding 3
Mode extension                           : CM (complete main)
Format settings, Endianness              : Big
Codec ID                                 : A_AC3
Duration                                 : 1h 35mn
Bit rate mode                            : Constant
Bit rate                                 : 192 Kbps
Channel(s)                               : 2 channels
Channel positions                        : Front: L R
Sampling rate                            : 48.0 KHz
Bit depth                                : 16 bits
Compression mode                         : Lossy
Delay relative to video                  : 26ms
Stream size                              : 131 MiB (3%)
Title                                    : MVO [Inter,K1-TakTrebaProduction] 2.0 192 Kbps [Hurtom-karvai0][-6ms]
Language                                 : Ukrainian
Default                                  : Yes
Forced                                   : No

Audio #2
ID                                       : 3
Format                                   : AC-3
Format/Info                              : Audio Coding 3
Mode extension                           : CM (complete main)
Format settings, Endianness              : Big
Codec ID                                 : A_AC3
Duration                                 : 1h 35mn
Bit rate mode                            : Constant
Bit rate                                 : 640 Kbps
Channel(s)                               : 6 channels
Channel positions                        : Front: L C R, Side: L R, LFE
Sampling rate                            : 48.0 KHz
Bit depth                                : 16 bits
Compression mode                         : Lossy
Stream size                              : 437 MiB (11%)
Title                                    : Original 5.1 640 Kbps
Language                                 : English
Default                                  : No
Forced                                   : No

Text #1
ID                                       : 4
Format                                   : UTF-8
Codec ID                                 : S_TEXT/UTF8
Codec ID/Info                            : UTF-8 Plain Text
Title                                    : Ukr full
Language                                 : Ukrainian
Default                                  : No
Forced                                   : No

Text #2
ID                                       : 5
Format                                   : UTF-8
Codec ID                                 : S_TEXT/UTF8
Codec ID/Info                            : UTF-8 Plain Text
Title                                    : Eng full
Language                                 : English
Default                                  : No
Forced                                   : No

Menu
00:00:00.000                             : :Chapter 01
00:09:07.838                             : :Chapter 02
00:20:41.531                             : :Chapter 03
00:29:39.777                             : :Chapter 04
00:36:29.103                             : :Chapter 05
00:44:04.224                             : :Chapter 06
00:48:54.431                             : :Chapter 07
00:55:28.408                             : :Chapter 08
01:04:45.339                             : :Chapter 09
01:15:31.318                             : :Chapter 10
01:24:52.086                             : :Chapter 11
01:32:32.213                             : :Chapter 12
01:35:09.370                             : :Chapter 13


---[Information] [01.03.2014 16:15:17] raw [info]: 1280x720p 1:1 @ 24000/1001 fps (cfr)
---[Information] [01.03.2014 16:15:17] [info]: using SAR=1/1
---[Information] [01.03.2014 16:15:17] [info]: using cpu capabilities: MMX2 SSE2Fast SSSE3 SSE4.2
---[Information] [01.03.2014 16:15:17] [info]: profile High, level 4.1
---[Information] [01.03.2014 23:56:24] [info]: frame I:802 Avg QP:17.80 size:109458
---[Information] [01.03.2014 23:56:24] [info]: frame P:25669 Avg QP:19.51 size: 52757
---[Information] [01.03.2014 23:56:24] [info]: frame B:110987 Avg QP:21.43 size: 20247
---[Information] [01.03.2014 23:56:24] [info]: consecutive B-frames: 0.8% 0.6% 2.4% 11.7% 18.6% 54.3% 11.6%
---[Information] [01.03.2014 23:56:24] [info]: mb I I16..4: 9.7% 77.1% 13.2%
---[Information] [01.03.2014 23:56:24] [info]: mb P I16..4: 0.4% 15.7% 1.1% P16..4: 34.8% 28.3% 14.7% 0.0% 0.0% skip: 4.9%
---[Information] [01.03.2014 23:56:24] [info]: mb B I16..4: 0.0% 1.7% 0.1% B16..8: 43.0% 15.2% 4.3% direct: 6.3% skip:29.3% L0:44.4% L1:43.4% BI:12.2%
---[Information] [01.03.2014 23:56:24] [info]: 8x8 transform intra:89.9% inter:56.9%
---[Information] [01.03.2014 23:56:24] [info]: coded y,uvDC,uvAC intra: 96.9% 81.2% 48.9% inter: 34.6% 21.4% 1.4%
---[Information] [01.03.2014 23:56:24] [info]: i16 v,h,dc,p: 54% 9% 13% 23%
---[Information] [01.03.2014 23:56:24] [info]: i8 v,h,dc,ddl,ddr,vr,hd,vl,hu: 10% 9% 14% 9% 12% 12% 11% 11% 12%
---[Information] [01.03.2014 23:56:24] [info]: i4 v,h,dc,ddl,ddr,vr,hd,vl,hu: 12% 12% 2% 8% 14% 14% 14% 11% 13%
---[Information] [01.03.2014 23:56:24] [info]: i8c dc,h,v,p: 39% 25% 21% 15%
---[Information] [01.03.2014 23:56:24] [info]: Weighted P-Frames: Y:6.2% UV:1.7%
---[Information] [01.03.2014 23:56:24] [info]: ref P L0: 37.9% 12.2% 20.4% 7.0% 7.2% 4.5% 5.0% 2.6% 3.1% 0.2% 0.0%
---[Information] [01.03.2014 23:56:24] [info]: ref B L0: 68.7% 13.1% 6.8% 4.0% 2.9% 2.6% 1.4% 0.5%
---[Information] [01.03.2014 23:56:24] [info]: ref B L1: 92.7% 7.3%
---[Information] [01.03.2014 23:56:24] [info]: kb/s:5147.86
---[Information] [01.03.2014 23:56:24] encoded 137458 frames, 4.97 fps, 5147.86 kb/s
---[Information] [01.03.2014 23:56:25] Final statistics
---[Information] [01.03.2014 23:56:25] Constant Quality Mode: Quality 19 computed...
---[Information] [01.03.2014 23:56:25] Video Bitrate Obtained (approximate): 5147 kbit/s




Джерела та подяки:
ріп відео, оригінальні звук та субтитри - STarankov; українська доріжка - karvai0 - зведення, Sando7 - запис з ТБ; українські субтитри - надані karvai0, українізований постер - thefir (всі троє - Гуртом).


ЗАЛИШАЙТЕСЬ ЯКОМОГА ДОВШЕ НА РОЗДАЧІ!

СКАЧАВ САМ - ДАЙ СКАЧАТИ ІНШИМ


 Трекер:    Зареєстрований   

Завантажити / скачати фільм українською



відео для новачків



 Зареєстрований:   2014-07-05 15:04
 Розмір:   3.99 GB 
 Оцінка фільму:   3.6/10 (Голосів: 15)
   
Інші релізи
   Сенсація / Scoop (2006) 1080p Ukr/Eng | Sub Ukr/Eng igor911  2 / 0   8.18 GB   2014-07-05 15:20 
   Сенсація / Scoop (2006) Ukr/Eng | Sub Ukr/Eng karvai0  1 / 1   1.7 GB   2014-07-04 18:18 
   Сенсація / Scoop (2006) 720p-mini Ukr/Eng | Sub Ukr/Eng ThEO  2 / 0   2.61 GB   2011-07-19 22:48 
Ваш часовий пояс: GMT + 2 Години

Нова тема   Відповісти