Завантажити та скачати торренти українською


Пробудження / Awakenings (1990) 720p 2xUkr/Eng | Sub Eng

Нові коментарі

Нова тема   Відповісти
Автор Повідомлення
Anonymous 







2014-07-04 15:36  
Пробудження / Awakenings (1990) 720p 2xUkr/Eng | Sub Eng



Оригінальний постер



Жанр: біографічний, драма
Країна: США



Кінокомпанія: Columbia Pictures Corporation, Parkes/Lasker productions
Режисер: Пенні Маршалл / Penny Marshall
Актори: Роберт Де Ніро / Robert De Niro, Робін Вільямс / Robin Williams, Джон Герд / John Heard, Джулі Кавнер / Julie Kavner, Пенелопа Енн Міллер / Penelope Ann Miller, Макс фон Сюдов / Max von Sydow, Бредлі Вітфорд / Bradley Whitford, Петер Стормаре / Peter Stormare, Рут Нельсон / Ruth Nelson, Еліс Драммонд / Alice Drummond, Він Дізель / Vin Diesel

Сюжет:
Доктор Малкольм Сейєр, сором’язливий лікар і вчений-дослідник, на свій страх і ризик вирішує спробувати новий, експериментальний препарат, який ще не пройшов відповідних досліджень, для лікування хворих, що знаходяться у коматозному стані. І стається диво: пацієнт прокидається після тридцятирічного сну, щоб вперше поглянути на світ. Лікар і пацієнт стають друзями. Завдяки цій дружбі доктор Сейєр стає сміливішою, більш відкритою людиною, а Леонард, його пацієнт, пізнає прості радості життя. Натхнений таким чудесним одужанням свого пацієнта, лікар дає цей препарат і іншим хворим…
Фільм повністю базується на реальних подіях, які відбулися у 1969-1970 р. з невропатологом Олівером Саксом, який згодом написав про це мемуари.


Рейтинг MPAA: PG-13 - дітям до 13 років перегляд не бажаний
Вікова категорія: 12+

Тривалість: 02:00:41
Якість: 720p [EbP]
Відео:
кодек:
розмір кадру: 1280 х 692
бітрейт: 7100 кбіт/с

Аудіо # 1:
мова: українська
переклад: багатоголосий закадровий
Ролі озвучили: Анатолій Пашнін (Робін Вільямс), Олег Стальчук (Роберт Де Ніро), Дмитро Гаврилов і Людмила Чиншева
кодек: 2.0
бітрейт: 192 кбіт/с

Аудіо # 2:
мова: українська
переклад: багатоголосий закадровий
кодек: 2.0
бітрейт: 192 кбіт/с

Аудіо # 3:
мова: англійська
переклад: оригінал
кодек: 5.1
бітрейт: 1536 кбіт/с

Субтитри:
мова: англійська
тип: програмні (м'які)
формат: *.srt

Збережено оригінальні розділи, як на Blu-ray.
MediaInfo
Код:
General
Unique ID                                : 223278586001222797170673754201917783292 (0xA7F9E43782A157E78B1C3884C5C47CFC)
Complete name                            : Awakenings (1990) [2xUkr,Eng sub.Eng] 720p [Hurtom].mkv
Format                                   : Matroska
Format version                           : Version 4 / Version 2
File size                                : 7.58 GiB
Duration                                 : 2h 0mn
Overall bit rate                         : 8 993 Kbps
Movie name                               : Пробудження / Awakenings (1990) 720p [Hurtom]
Encoded date                             : UTC 2014-07-04 13:53:34
Writing application                      : mkvmerge v7.0.0 ('Where We Going') 64bit built on Jun  9 2014 15:16:27
Writing library                          : libebml v1.3.0 + libmatroska v1.4.1
DURATION                                 : 02:00:41.184000000
NUMBER_OF_FRAMES                         : 226287
NUMBER_OF_BYTES                          : 173788416
_STATISTICS_WRITING_APP                  : mkvmerge v7.0.0 ('Where We Going') 64bit built on Jun  9 2014 15:16:27
_STATISTICS_WRITING_DATE_UTC             : 2014-07-04 13:53:34
_STATISTICS_TAGS                         : BPS DURATION NUMBER_OF_FRAMES NUMBER_OF_BYTES

Video
ID                                       : 1
Format                                   : AVC
Format/Info                              : Advanced Video Codec
Format profile                           : [email protected]
Format settings, CABAC                   : Yes
Format settings, ReFrames                : 9 frames
Codec ID                                 : V_MPEG4/ISO/AVC
Duration                                 : 2h 0mn
Bit rate                                 : 7 100 Kbps
Width                                    : 1 280 pixels
Height                                   : 692 pixels
Display aspect ratio                     : 1.85:1
Frame rate mode                          : Constant
Frame rate                               : 23.976 fps
Color space                              : YUV
Chroma subsampling                       : 4:2:0
Bit depth                                : 8 bits
Scan type                                : Progressive
Bits/(Pixel*Frame)                       : 0.334
Stream size                              : 5.83 GiB (77%)
Title                                    : Пробудження / Awakenings / Пробуждение (1990) 720p [EbP]
Writing library                          : core 114 r1913 5fd3dce
Encoding settings                        : cabac=1 / ref=9 / deblock=1:-3:-3 / analyse=0x3:0x113 / me=umh / subme=9 / psy=1 / psy_rd=1.30:0.00 / mixed_ref=1 / me_range=16 / chroma_me=1 / trellis=2 / 8x8dct=1 / cqm=0 / deadzone=21,11 / fast_pskip=0 / chroma_qp_offset=-2 / threads=6 / sliced_threads=0 / nr=0 / decimate=0 / interlaced=0 / constrained_intra=0 / bframes=9 / b_pyramid=2 / b_adapt=2 / b_bias=0 / direct=3 / weightb=1 / open_gop=0 / weightp=2 / keyint=250 / keyint_min=23 / scenecut=40 / intra_refresh=0 / rc=2pass / mbtree=0 / bitrate=7100 / ratetol=1.0 / qcomp=0.60 / qpmin=0 / qpmax=69 / qpstep=4 / cplxblur=20.0 / qblur=0.5 / ip_ratio=1.40 / pb_ratio=1.30 / aq=1:0.50
Language                                 : English
Default                                  : Yes
Forced                                   : Yes
DURATION                                 : 02:00:41.234000000
NUMBER_OF_FRAMES                         : 173616
NUMBER_OF_BYTES                          : 6423812601
_STATISTICS_WRITING_APP                  : mkvmerge v7.0.0 ('Where We Going') 64bit built on Jun  9 2014 15:16:27
_STATISTICS_WRITING_DATE_UTC             : 2014-07-04 13:53:34
_STATISTICS_TAGS                         : BPS DURATION NUMBER_OF_FRAMES NUMBER_OF_BYTES

Audio #1
ID                                       : 2
Format                                   : AC-3
Format/Info                              : Audio Coding 3
Mode extension                           : CM (complete main)
Format settings, Endianness              : Big
Codec ID                                 : A_AC3
Duration                                 : 2h 0mn
Bit rate mode                            : Constant
Bit rate                                 : 192 Kbps
Channel(s)                               : 2 channels
Channel positions                        : Front: L R
Sampling rate                            : 48.0 KHz
Bit depth                                : 16 bits
Compression mode                         : Lossy
Delay relative to video                  : 8ms
Stream size                              : 166 MiB (2%)
Title                                    : MVO [Inter] 2.0 192 Kbps [Hurtom-karvai0][+8ms]
Language                                 : Ukrainian
Default                                  : Yes
Forced                                   : Yes

Audio #2
ID                                       : 3
Format                                   : AC-3
Format/Info                              : Audio Coding 3
Mode extension                           : CM (complete main)
Format settings, Endianness              : Big
Codec ID                                 : A_AC3
Duration                                 : 2h 0mn
Bit rate mode                            : Constant
Bit rate                                 : 192 Kbps
Channel(s)                               : 2 channels
Channel positions                        : Front: L R
Sampling rate                            : 48.0 KHz
Bit depth                                : 16 bits
Compression mode                         : Lossy
Delay relative to video                  : 9ms
Stream size                              : 166 MiB (2%)
Title                                    : MVO [ICTV] 2.0 192 Kbps [Hurtom-karvai0][+9ms]
Language                                 : Ukrainian
Default                                  : No
Forced                                   : No

Audio #3
ID                                       : 4
Format                                   :
Format/Info                              : Digital Theater Systems
Mode                                     : 16
Format settings, Endianness              : Big
Codec ID                                 : A_DTS
Duration                                 : 2h 0mn
Bit rate mode                            : Constant
Bit rate                                 : 1 509 Kbps
Channel(s)                               : 6 channels
Channel positions                        : Front: L C R, Side: L R, LFE
Sampling rate                            : 48.0 KHz
Bit depth                                : 24 bits
Compression mode                         : Lossy
Delay relative to video                  : 11ms
Stream size                              : 1.27 GiB (17%)
Title                                    : Original 5.1 1536 Kbps
Language                                 : English
Default                                  : No
Forced                                   : No

Text
ID                                       : 5
Format                                   : UTF-8
Codec ID                                 : S_TEXT/UTF8
Codec ID/Info                            : UTF-8 Plain Text
Title                                    : Eng full
Language                                 : English
Default                                  : No
Forced                                   : No

Menu
00:00:00.000                             : en:00:00:00.000
00:04:39.237                             : en:00:04:39.237
00:11:05.832                             : en:00:11:05.832
00:15:34.976                             : en:00:15:34.976
00:22:28.013                             : en:00:22:28.013
00:30:11.476                             : en:00:30:11.476
00:42:58.493                             : en:00:42:58.493
00:52:12.463                             : en:00:52:12.463
01:00:40.095                             : en:01:00:40.095
01:06:15.263                             : en:01:06:15.263
01:11:18.900                             : en:01:11:18.900
01:24:19.012                             : en:01:24:19.012
01:28:46.238                             : en:01:28:46.238
01:30:14.909                             : en:01:30:14.909
01:41:32.920                             : en:01:41:32.920
01:50:54.314                             : en:01:50:54.314




Джерела та подяки:
ріп відео - EbP (HDbits); українські доріжки - karvai0 - зведення, Tanat13 (1,2), MAKAPOHHIK (2) - запис з ТБ; українізований постер - hellforces (всі - Гуртом).


ЗАЛИШАЙТЕСЬ ЯКОМОГА ДОВШЕ НА РОЗДАЧІ!

СКАЧАВ САМ - ДАЙ СКАЧАТИ ІНШИМ


Срібний реліз (на рейтинг впливає 50% завантаженого)
 Трекер:    Зареєстрований   

Завантажити / скачати фільм українською



відео для новачків



 Зареєстрований:   2014-07-04 16:06
 Розмір:   7.58 GB 
 Оцінка фільму:   4.4/10 (Голосів: 16)
   
Інші релізи
   Пробудження / Awakenings (1990) 1080p 2xUkr/Eng | Sub Eng igor911  4 / 0   12.12 GB   2014-07-04 17:31 
   Пробудження / Awakenings (1990) 2xUkr/Eng | Sub Eng karvai0  8 / 0   2.18 GB   2014-07-03 15:21 
   Пробудження / Awakenings (1990) AVC Ukr/Eng |Sub Eng imonko  2 / 0   4.35 GB   2011-12-20 19:38 
Ваш часовий пояс: GMT + 2 Години

Нова тема   Відповісти