Завантажити та скачати торренти українською


Зоряна Брама. Колекція повнометражних фільмів / Stargate - Collection Feature-Length Movies (1994-2008-2008) 720p Ukr/Eng

Нові коментарі

Нова тема   Відповісти
Автор Повідомлення
Гірський Кришталь 
Свій


З нами з: 07.01.09
Востаннє: 06.10.16
Повідомлень: 129

2014-06-30 23:00  
Зоряна Брама. Колекція повнометражних фільмів / Stargate - Collection Feature-Length Movies (1994-2008-2008) 720p Ukr/Eng

Зоряна Брама. Колекція повнометражних фільмів / Stargate - Collection Feature-Length Movies (1994-2008-2008) 720p Ukr/Eng
Зоряна брама (Реж.версія) / Stargate (Dir.cut) (1994) 720p Ukr/Eng

Зоряна брама [Реж.версія] / Stargate [Dir.cut] (1994) 720p Ukr/Eng

Зоряна Брама. Колекція повнометражних фільмів / Stargate - Collection Feature-Length Movies (1994-2008-2008) 720p Ukr/Eng


Жанр: фантастика, бойовик, пригодницький
Країна: США, Франція



Кінокомпанія: Canal+
Режисер: Роланд Еммеріх
Актори: Курт Расселл, Джеймс Спейдер, Вівека Ліндфорс, Алексіс Круз, Мілі Авітал, Джон Діл

Сюжет:
1928 рік. Єгипет. Археолог знаходить дивну споруду. Через багато років, вже у наш час його дочка привертає молодого фахівця Джексона для розгадки таємниці, над якою б'ються учені на військовій базі в горах. Таємнича споруда виявляється воротами в інші світи. З групою спецназу Джексон і полковник відправляються через зоряні брами назустріч незвіданому. А там їх чекають суворі випробування і боротьба, від результату якої залежить доля людства.

Вперше всесвіт «Зоряних брам» був представлений у даному науково-фантастичному фільмі Роланда Емеріха «Зоряна брама» (1994). У подальшому вона отримала продовження у двох серіалах: «Зоряна брама: SG-1» (10 сезонів) і «Зоряна брама: Атлантида» (5 сезонів), фільмах «Зоряна брама: Ковчег правди» і «Зоряна брама: Континум»,а також у книгах та інших продуктах, зокрема, у чотирьох тематичних парках. 1 жовтня 2009 року розпочалася трансляція ще одного серіалу "Зоряна брама: Всесвіт".


Тривалість: 02:10:00
Якість:
Відео:
кодек:
розмір кадру: 1280 х 528
бітрейт: 4045 кб/с

Аудіо # 1:
мова: українська
переклад: двоголосий закадровий
кодек: 5.1
бітрейт: 384 кб/с

Аудіо # 2:
мова: англійська
переклад: оригінал
кодек: 5.1
бітрейт: 384 кб/с

Джерело озвучення:
MediaInfo
General
Unique ID : 203413337651530855140505345260827603144 (0x9907FBDAC7F12401B8A933F9F59E70C8)
Complete name : D:\Video\Зоряна Брама\Stargate (Director's Cut) (1994) [Ukr Eng] 720p [Hurtom] by Krysztal.mkv
Format : Matroska
Format version : Version 2
File size : 4.37 GiB
Duration : 2h 10mn
Overall bit rate : 4 810 Kbps
Encoded date : UTC 2014-06-26 07:44:36
Writing application : mkvmerge v4.6.0 ('Still Crazy After All These Years') зібрано Mar 10 2011 02:50:32
Writing library : libebml v1.2.0 + libmatroska v1.1.0

Video
ID : 1
Format : AVC
Format/Info : Advanced Video Codec
Format profile : [email protected]
Format settings, CABAC : Yes
Format settings, ReFrames : 4 frames
Codec ID : V_MPEG4/ISO/AVC
Duration : 2h 10mn
Bit rate : 4 045 Kbps
Width : 1 280 pixels
Height : 528 pixels
Display aspect ratio : 2.40:1
Frame rate mode : Constant
Frame rate : 23.976 fps
Color space : YUV
Chroma subsampling : 4:2:0
Bit depth : 8 bits
Scan type : Progressive
Bits/(Pixel*Frame) : 0.250
Stream size : 3.58 GiB (82%)
Title : Зоряна Брама (Режисерська версія) / Stargate (Director's Cut) (1994) BDRip720
Writing library : core 138 r2358 9e941d1
Encoding settings : cabac=1 / ref=3 / deblock=1:-3:-3 / analyse=0x3:0x113 / me=umh / subme=10 / psy=1 / psy_rd=1.00:0.00 / mixed_ref=1 / me_range=64 / chroma_me=1 / trellis=2 / 8x8dct=1 / cqm=0 / deadzone=21,11 / fast_pskip=0 / chroma_qp_offset=-2 / threads=3 / lookahead_threads=1 / sliced_threads=0 / nr=0 / decimate=1 / interlaced=0 / bluray_compat=0 / constrained_intra=0 / bframes=3 / b_pyramid=2 / b_adapt=1 / b_bias=0 / direct=1 / weightb=1 / open_gop=0 / weightp=2 / keyint=240 / keyint_min=23 / scenecut=40 / intra_refresh=0 / rc_lookahead=40 / rc=2pass / mbtree=1 / bitrate=4045 / ratetol=1.0 / qcomp=0.60 / qpmin=10 / qpmax=51 / qpstep=4 / cplxblur=20.0 / qblur=0.5 / vbv_maxrate=62500 / vbv_bufsize=78125 / nal_hrd=none / ip_ratio=1.40 / aq=1:1.00
Default : Yes
Forced : No

Audio #1
ID : 2
Format : AC-3
Format/Info : Audio Coding 3
Mode extension : CM (complete main)
Format settings, Endianness : Big
Codec ID : A_AC3
Duration : 2h 10mn
Bit rate mode : Constant
Bit rate : 384 Kbps
Channel count : 6 channels
Channel positions : Front: L C R, Side: L R, LFE
Sampling rate : 48.0 KHz
Bit depth : 16 bits
Compression mode : Lossy
Stream size : 357 MiB (8%)
Language : Ukrainian
Default : Yes
Forced : No

Audio #2
ID : 3
Format : AC-3
Format/Info : Audio Coding 3
Mode extension : CM (complete main)
Format settings, Endianness : Big
Codec ID : A_AC3
Duration : 2h 10mn
Bit rate mode : Constant
Bit rate : 384 Kbps
Channel count : 6 channels
Channel positions : Front: L C R, Side: L R, LFE
Sampling rate : 48.0 KHz
Bit depth : 16 bits
Compression mode : Lossy
Stream size : 357 MiB (8%)
Language : English
Default : No
Forced : No
Скріншоти




Джерело:
Особиста оцінка: 10 - без зайвих вагань рекомендую всім!
Зоряна Брама: Континуум / StarGate: Continuum (2008) 720p Ukr/Eng

Зоряна Брама: Континуум / StarGate: Continuum (2008) 720p Ukr/Eng

Зоряна Брама. Колекція повнометражних фільмів / Stargate - Collection Feature-Length Movies (1994-2008-2008) 720p Ukr/Eng


Жанр: фантастика, пригодницький, бойовик, драма
Країна: Канада, США



Кінокомпанія: Metro-Goldwyn-Mayer (MGM)
Режисер: Мартін Вуд
Актори: Бен Броудер, Аманда Теппінг, Крістофер Джадж, Майкл Шенкс, Бо Бріджес, Клаудіа Блек, Річард Дін Андерсон, Кліфф Саймон, Дон С. Девіс

Сюжет:
Поки команда SG-1 намагається знищити Баала, останнього лорда гуаулдів, Тіл'К і Вала загадково зникають. Картер, Деніел і Мітчел відправляються на Землю, де попадають у змінену реальність. Згодом вони розуміють, що був порушений часовий континуум і в цьому світі програми з дослідження зоряної брами ніколи не існувало. Герої намагаються донести свої непрості думки до влади, але на орбіту прибувають крейсери гуаулдів на чолі з Баалом, королевою Кетеш та першим воїном Тіл'Ком. Команді SG-1 необхідно знайти зоряну браму і відновити правильний хід подій до того, як світ буде поневолений загарбниками.


Тривалість: 01:38х:35
Якість:
Відео:
кодек:
розмір кадру: 1280 х 720
бітрейт: 6345 кб/с

Аудіо # 1:
мова: українська
переклад: багатоголосий закадровий
кодек: 5.1
бітрейт: 384 кб/с

Аудіо # 2:
мова: англійська
переклад: оригінал
кодек: 5.1
бітрейт: 384 кб/с

Джерело озвучення:
MediaInfo
General
Unique ID : 235407816648028457637708352064545149602 (0xB119E575649F01738FEE851FEA94D2A2)
Complete name : D:\Video\Зоряна Брама\Stargate.Continuum.mkv
Format : Matroska
Format version : Version 2
File size : 4.37 GiB
Duration : 1h 38mn
Overall bit rate : 6 345 Kbps
Encoded date : UTC 2014-06-27 22:05:38
Writing application : mkvmerge v4.6.0 ('Still Crazy After All These Years') зібрано Mar 10 2011 02:50:32
Writing library : libebml v1.2.0 + libmatroska v1.1.0

Video
ID : 1
Format : AVC
Format/Info : Advanced Video Codec
Format profile : [email protected]
Format settings, CABAC : Yes
Format settings, ReFrames : 4 frames
Codec ID : V_MPEG4/ISO/AVC
Duration : 1h 38mn
Bit rate : 5 577 Kbps
Width : 1 280 pixels
Height : 720 pixels
Display aspect ratio : 16:9
Frame rate mode : Constant
Frame rate : 23.976 fps
Color space : YUV
Chroma subsampling : 4:2:0
Bit depth : 8 bits
Scan type : Progressive
Bits/(Pixel*Frame) : 0.252
Stream size : 3.75 GiB (86%)
Title : Зоряна Брама: Континуум / StarGate: Continuum (2008) 720p
Writing library : core 138 r2358 9e941d1
Encoding settings : cabac=1 / ref=3 / deblock=1:-3:-3 / analyse=0x3:0x113 / me=umh / subme=10 / psy=1 / psy_rd=1.00:0.00 / mixed_ref=1 / me_range=64 / chroma_me=1 / trellis=2 / 8x8dct=1 / cqm=0 / deadzone=21,11 / fast_pskip=0 / chroma_qp_offset=-2 / threads=3 / lookahead_threads=1 / sliced_threads=0 / nr=0 / decimate=1 / interlaced=0 / bluray_compat=0 / constrained_intra=0 / bframes=3 / b_pyramid=2 / b_adapt=1 / b_bias=0 / direct=1 / weightb=1 / open_gop=0 / weightp=2 / keyint=240 / keyint_min=23 / scenecut=40 / intra_refresh=0 / rc_lookahead=40 / rc=2pass / mbtree=1 / bitrate=5577 / ratetol=1.0 / qcomp=0.60 / qpmin=10 / qpmax=51 / qpstep=4 / cplxblur=20.0 / qblur=0.5 / vbv_maxrate=62500 / vbv_bufsize=78125 / nal_hrd=none / ip_ratio=1.40 / aq=1:1.00
Default : Yes
Forced : No

Audio #1
ID : 2
Format : AC-3
Format/Info : Audio Coding 3
Mode extension : CM (complete main)
Format settings, Endianness : Big
Codec ID : A_AC3
Duration : 1h 38mn
Bit rate mode : Constant
Bit rate : 384 Kbps
Channel count : 6 channels
Channel positions : Front: L C R, Side: L R, LFE
Sampling rate : 48.0 KHz
Bit depth : 16 bits
Compression mode : Lossy
Stream size : 271 MiB (6%)
Language : Ukrainian
Default : Yes
Forced : No

Audio #2
ID : 3
Format : AC-3
Format/Info : Audio Coding 3
Mode extension : CM (complete main)
Format settings, Endianness : Big
Codec ID : A_AC3
Duration : 1h 38mn
Bit rate mode : Constant
Bit rate : 384 Kbps
Channel count : 6 channels
Channel positions : Front: L C R, Side: L R, LFE
Sampling rate : 48.0 KHz
Bit depth : 16 bits
Compression mode : Lossy
Stream size : 271 MiB (6%)
Language : English
Default : No
Forced : No
Скріншоти




Джерело:
Особиста оцінка: 10 - без зайвих вагань рекомендую всім!
Зоряна Брама: Ковчег Істини / Stargate: The Ark of Truth (2008) 720p Ukr/Eng

Зоряна Брама: Ковчег Істини / Stargate: The Ark of Truth (2008) 720p Ukr/Eng

Зоряна Брама. Колекція повнометражних фільмів / Stargate - Collection Feature-Length Movies (1994-2008-2008) 720p Ukr/Eng

Жанр: фантастика, пригодницький, бойовик, комедія
Країна: США, Канада



Кінокомпанія: Metro-Goldwyn-Mayer
Режисер: Роберт С. Купер
Актори: Бен Броудер, Аманда Теппінг, Крістофер Джадж, Майкл Шенкс, Бо Бріджес , Клаудіа Блек, Морена Баккерін, Кюрі Грехем, Тім Гуінні, Джуліан Сендс, Сара Стренжд

Сюжет:
Під час пошуків стародавнього пристрою, здатного знищити Орай, команда ЗВ-1 дізналася про те, що в галактиці Орай повним ходом іде створення величезного флоту потужних кораблів, які скоро повинні відправитися через суперворота в галактику "Чумацький шлях", щоб назавжди покінчити з Землею. У цей час Доктор Джексон знайшов інформацію, яка вказує на те, що зброя «Ковчег Правди», знаходиться в рідній галактиці Орай, і саме туди ЗВ-1 відправляється на Одіссеї. Однак в М.Н.К. свої плани на цю війну і ЗВ-1 у них не входить, а це значить, що під час пошуку зброї команді належить боротися відразу з двома могутніми ворогами.


Тривалість: 01:41:52
Якість:
Відео:
кодек:
розмір кадру: 1280 х 720
бітрейт: 6143 кб/с

Аудіо # 1:
мова: українська
переклад: оригінал
кодек: 5.1
бітрейт: 384 кб/с

Аудіо # 2:
мова: англійська
переклад: оригінал
кодек: 5.1
бітрейт: 384 кб/с

Джерело озвучення:
MediaInfo
General
Unique ID : 249026331202560944626991336185461960797 (0xBB58BA10E6AF82D58537874A63FB705D)
Complete name : D:\Video\Зоряна Брама\Stargate.The Ark of Truth (2008) [Ukr Eng] 720p [Hurtom] by Krysztal.mkv
Format : Matroska
Format version : Version 2
File size : 4.37 GiB
Duration : 1h 41mn
Overall bit rate : 6 143 Kbps
Encoded date : UTC 2014-06-24 08:16:27
Writing application : mkvmerge v4.6.0 ('Still Crazy After All These Years') зібрано Mar 10 2011 02:50:32
Writing library : libebml v1.2.0 + libmatroska v1.1.0

Video
ID : 1
Format : AVC
Format/Info : Advanced Video Codec
Format profile : [email protected]
Format settings, CABAC : Yes
Format settings, ReFrames : 4 frames
Codec ID : V_MPEG4/ISO/AVC
Duration : 1h 41mn
Bit rate : 5 375 Kbps
Width : 1 280 pixels
Height : 720 pixels
Display aspect ratio : 16:9
Frame rate mode : Constant
Frame rate : 23.976 fps
Color space : YUV
Chroma subsampling : 4:2:0
Bit depth : 8 bits
Scan type : Progressive
Bits/(Pixel*Frame) : 0.243
Stream size : 3.74 GiB (86%)
Title : Зоряна Брама: Ковчег Істини / Stargate: The Ark of Truth (2008) 720p
Writing library : core 138 r2358 9e941d1
Encoding settings : cabac=1 / ref=3 / deblock=1:-3:-3 / analyse=0x3:0x113 / me=umh / subme=10 / psy=1 / psy_rd=1.00:0.00 / mixed_ref=1 / me_range=64 / chroma_me=1 / trellis=2 / 8x8dct=1 / cqm=0 / deadzone=21,11 / fast_pskip=0 / chroma_qp_offset=-2 / threads=3 / lookahead_threads=1 / sliced_threads=0 / nr=0 / decimate=1 / interlaced=0 / bluray_compat=0 / constrained_intra=0 / bframes=3 / b_pyramid=2 / b_adapt=1 / b_bias=0 / direct=1 / weightb=1 / open_gop=0 / weightp=2 / keyint=240 / keyint_min=23 / scenecut=40 / intra_refresh=0 / rc_lookahead=40 / rc=2pass / mbtree=1 / bitrate=5375 / ratetol=1.0 / qcomp=0.60 / qpmin=10 / qpmax=51 / qpstep=4 / cplxblur=20.0 / qblur=0.5 / vbv_maxrate=62500 / vbv_bufsize=78125 / nal_hrd=none / ip_ratio=1.40 / aq=1:1.00
Default : Yes
Forced : No

Audio #1
ID : 2
Format : AC-3
Format/Info : Audio Coding 3
Mode extension : CM (complete main)
Format settings, Endianness : Big
Codec ID : A_AC3
Duration : 1h 41mn
Bit rate mode : Constant
Bit rate : 384 Kbps
Channel count : 6 channels
Channel positions : Front: L C R, Side: L R, LFE
Sampling rate : 48.0 KHz
Bit depth : 16 bits
Compression mode : Lossy
Stream size : 280 MiB (6%)
Language : Ukrainian
Default : Yes
Forced : No

Audio #2
ID : 3
Format : AC-3
Format/Info : Audio Coding 3
Mode extension : CM (complete main)
Format settings, Endianness : Big
Codec ID : A_AC3
Duration : 1h 41mn
Bit rate mode : Constant
Bit rate : 384 Kbps
Channel count : 6 channels
Channel positions : Front: L C R, Side: L R, LFE
Sampling rate : 48.0 KHz
Bit depth : 16 bits
Compression mode : Lossy
Stream size : 280 MiB (6%)
Language : English
Default : No
Forced : No
Скріншоти




Джерело:
Особиста оцінка: 10 - без зайвих вагань рекомендую всім!
перед переглядом 2 і 3 частини варто подивитись серіал "Зоряна Брама (SG-1)"

подяка drakin87 і hellforces за постери


Джерело:
Особиста оцінка: 10 - без зайвих вагань рекомендую всім!


Срібний реліз (на рейтинг впливає 50% завантаженого)
 Трекер:    Зареєстрований   

Завантажити / скачати фільм українською



відео для новачків



 Зареєстрований:   2014-06-30 23:00
 Розмір:   13.11 GB 
 Оцінка фільму:   9.8/10 (Голосів: 22)
   
Watson 
Новенький


З нами з: 18.05.10
Востаннє: 30.11.16
Повідомлень: 9

2014-09-12 11:56  
Субтитри українською до першого фільму http://toloka.to/t58992#671229
igor911 
Відео Гуртом
Відео Гуртом


З нами з: 18.01.08
Востаннє: 04.12.16
Повідомлень: 5128

2014-09-12 12:44  
Watson, лінк веде на 404.
Watson 
Новенький


З нами з: 18.05.10
Востаннє: 30.11.16
Повідомлень: 9

2014-09-12 20:24  
закинув на толоку http://toloka.to/t58992#671229
Ulter_zl 
Новенький


З нами з: 13.11.11
Востаннє: 04.11.15
Повідомлень: 3

2015-01-16 19:05  
Watson
немає сторінки. перезалийте.

Ulter_zl 
Новенький


З нами з: 13.11.11
Востаннє: 04.11.15
Повідомлень: 3

2015-01-17 15:12  
Watson
Сідерів немає на 2 і 3 фільм(((

Ваш часовий пояс: GMT + 2 Години

Нова тема   Відповісти