Завантажити та скачати торренти українською


На чужій смузі / Changing Lanes (2002) 720p Ukr/Eng | Sub Multi

Нові коментарі

Нова тема   Відповісти
Автор Повідомлення
Anonymous 







2014-06-30 17:26  
На чужій смузі / Changing Lanes (2002) 720p Ukr/Eng | Sub Multi



Жанр: драма, трилер
Країна: США



Кінокомпанія: Paramount Pictures, Scott Rudin Productions
Режисер: Роджер Мічелл / Roger Michell
Актори: Бен Аффлек / Ben Affleck, Семюель Л. Джексон / Samuel L. Jackson, Кім Стонтон / Kim Staunton, Тоні Коллетт / Toni Collette, Сідні Поллак / Sydney Pollack, Тіна Слоун / Tina Sloan, Річард Дженкінс / Richard Jenkins, Акіл Волкер / Akil Walker, Коул Гоукінс / Cole Hawkins

Сюжет:
Ґевін Банек - енергійна молода людина, яка працює юристом у фірмі свого тестя на Волл Стріт. Дойл Гіпсон - представник страхової компанії, який повертається до нормального життя після алкоголізму. Його дружина розлучилася з ним, і тепер планує перебратися з Нью-Йорка в Портланд разом з двома їхніми дітьми.
Нью-Йорк, п'ятниця. Гіпсон поспішає до суду, щоб відстояти там право бачитися зі своїми синами. Банек же їде на своєму Мерседесі в суд, щоб завірити один багатомільйонний заповіт. Машини Банека і Гіпсона опиняються в сусідніх смугах на дорозі. Гіпсон занадто зайнятий обмірковуванням своєї промови в суді, а Банека відволікає дзвінок по мобільному телефону. Вони не помічають машин один одного, один невірний поворот, і ось вже Банек і Гіпсон - винуватці дорожньо-транспортної пригоди.
Жертв немає, однак сварка цих двох абсолютно різних людей буде мати великі наслідки для кожного з них. Цей випадок на дорозі змусить двох незнайомців розв'язати війну один проти одного. Зі звіриною запеклістю вони намагатимуться помститися один одному, а гнів приведе кожного з них до межі самознищення...


Рейтинг MPAA: R - особам до 17 років обов'язкова присутність батьків або дорослого опікуна
Вікова категорія: 12+

Тривалість: 01:38:44
Якість: 720p
Відео:
кодек:
розмір кадру: 1280 х 546
бітрейт: 5702 кбіт/с

Аудіо # 1:
мова: українська
переклад: багатоголосий закадровий
кодек: 2.0
бітрейт: 192 кбіт/с

Аудіо # 2:
мова: англійська
переклад: оригінал
кодек: 5.1
бітрейт: 640 кбіт/с

Аудіо # 3:
мова: англійська
переклад: Коментарі режисера
кодек: 2.0
бітрейт: 224 кбіт/с

Субтитри # 1-8:
мова: англійська, данська, голландська, фінська, французька, німецька, іспанська, шведська
тип: програмні (м'які)
формат: *.srt
MediaInfo
Код:
General
Unique ID                                : 242655231508750509421411082440314230070 (0xB68DB2995A8CFCFBAB91404AE5E89536)
Complete name                            : Changing Lanes (2002) [Ukr,Eng sub.Multi] 720p [Hurtom].mkv
Format                                   : Matroska
Format version                           : Version 4 / Version 2
File size                                : 4.66 GiB
Duration                                 : 1h 38mn
Overall bit rate                         : 6 761 Kbps
Movie name                               : На чужій смузі / Changing Lanes (2002) 720p [Hurtom]
Encoded date                             : UTC 2014-06-30 14:34:29
Writing application                      : mkvmerge v7.0.0 ('Where We Going') 64bit built on Jun  9 2014 15:16:27
Writing library                          : libebml v1.3.0 + libmatroska v1.4.1
DURATION                                 : 01:38:44.832000000
NUMBER_OF_FRAMES                         : 185151
NUMBER_OF_BYTES                          : 142195968
_STATISTICS_WRITING_APP                  : mkvmerge v7.0.0 ('Where We Going') 64bit built on Jun  9 2014 15:16:27
_STATISTICS_WRITING_DATE_UTC             : 2014-06-30 14:34:29
_STATISTICS_TAGS                         : BPS DURATION NUMBER_OF_FRAMES NUMBER_OF_BYTES

Video
ID                                       : 1
Format                                   : AVC
Format/Info                              : Advanced Video Codec
Format profile                           : [email protected]
Format settings, CABAC                   : Yes
Format settings, ReFrames                : 8 frames
Codec ID                                 : V_MPEG4/ISO/AVC
Duration                                 : 1h 38mn
Bit rate                                 : 5 702 Kbps
Width                                    : 1 280 pixels
Height                                   : 546 pixels
Display aspect ratio                     : 2.35:1
Frame rate mode                          : Constant
Frame rate                               : 23.976 fps
Color space                              : YUV
Chroma subsampling                       : 4:2:0
Bit depth                                : 8 bits
Scan type                                : Progressive
Bits/(Pixel*Frame)                       : 0.340
Stream size                              : 3.84 GiB (82%)
Title                                    : На чужій смузі / Changing Lanes / В чужом ряду (2002) 720p [HDbits-RuDe]
Writing library                          : core 75 r1259M dd026f2
Encoding settings                        : cabac=1 / ref=8 / deblock=1:-3:-3 / analyse=0x3:0x113 / me=umh / subme=9 / psy=1 / psy_rd=1.0:0.2 / mixed_ref=1 / me_range=24 / chroma_me=1 / trellis=2 / 8x8dct=1 / cqm=0 / deadzone=21,11 / chroma_qp_offset=-3 / threads=6 / nr=0 / decimate=1 / mbaff=0 / bframes=5 / b_pyramid=1 / b_adapt=2 / b_bias=0 / direct=3 / wpredb=1 / keyint=250 / keyint_min=25 / scenecut=40 / rc_lookahead=0 / rc=2pass / mbtree=0 / bitrate=5702 / ratetol=1.0 / qcomp=0.60 / qpmin=10 / qpmax=51 / qpstep=4 / cplxblur=20.0 / qblur=0.5 / vbv_maxrate=50000 / vbv_bufsize=50000 / ip_ratio=1.40 / pb_ratio=1.30 / aq=1:0.70 / pulldown=0 / nal_hrd=0
Language                                 : English
Default                                  : Yes
Forced                                   : Yes
DURATION                                 : 01:38:44.873000000
NUMBER_OF_FRAMES                         : 142055
NUMBER_OF_BYTES                          : 4222538340
_STATISTICS_WRITING_APP                  : mkvmerge v7.0.0 ('Where We Going') 64bit built on Jun  9 2014 15:16:27
_STATISTICS_WRITING_DATE_UTC             : 2014-06-30 14:34:29
_STATISTICS_TAGS                         : BPS DURATION NUMBER_OF_FRAMES NUMBER_OF_BYTES

Audio #1
ID                                       : 2
Format                                   : AC-3
Format/Info                              : Audio Coding 3
Mode extension                           : CM (complete main)
Format settings, Endianness              : Big
Codec ID                                 : A_AC3
Duration                                 : 1h 38mn
Bit rate mode                            : Constant
Bit rate                                 : 192 Kbps
Channel(s)                               : 2 channels
Channel positions                        : Front: L R
Sampling rate                            : 48.0 KHz
Bit depth                                : 16 bits
Compression mode                         : Lossy
Delay relative to video                  : 20ms
Stream size                              : 136 MiB (3%)
Title                                    : MVO [Inter] 2.0 192 Kbps [Hurtom-taraskill1][-12ms]
Language                                 : Ukrainian
Default                                  : Yes
Forced                                   : Yes

Audio #2
ID                                       : 3
Format                                   : AC-3
Format/Info                              : Audio Coding 3
Mode extension                           : CM (complete main)
Format settings, Endianness              : Big
Codec ID                                 : A_AC3
Duration                                 : 1h 38mn
Bit rate mode                            : Constant
Bit rate                                 : 640 Kbps
Channel(s)                               : 6 channels
Channel positions                        : Front: L C R, Side: L R, LFE
Sampling rate                            : 48.0 KHz
Bit depth                                : 16 bits
Compression mode                         : Lossy
Stream size                              : 452 MiB (9%)
Title                                    : Original 5.1 640 Kbps
Language                                 : English
Default                                  : No
Forced                                   : No

Audio #3
ID                                       : 4
Format                                   : AC-3
Format/Info                              : Audio Coding 3
Format profile                           : Dolby Digital
Mode extension                           : CM (complete main)
Format settings, Endianness              : Big
Codec ID                                 : A_AC3
Duration                                 : 1h 38mn
Bit rate mode                            : Constant
Bit rate                                 : 224 Kbps
Channel(s)                               : 2 channels
Channel positions                        : Front: L R
Sampling rate                            : 48.0 KHz
Bit depth                                : 16 bits
Compression mode                         : Lossy
Stream size                              : 158 MiB (3%)
Title                                    : Director's Commentary 2.0 224 Kbps
Language                                 : English
Default                                  : No
Forced                                   : No

Text #1
ID                                       : 5
Format                                   : UTF-8
Codec ID                                 : S_TEXT/UTF8
Codec ID/Info                            : UTF-8 Plain Text
Title                                    : Eng full
Language                                 : English
Default                                  : No
Forced                                   : No

Text #2
ID                                       : 6
Format                                   : UTF-8
Codec ID                                 : S_TEXT/UTF8
Codec ID/Info                            : UTF-8 Plain Text
Title                                    : Dan full
Language                                 : Danish
Default                                  : No
Forced                                   : No

Text #3
ID                                       : 7
Format                                   : UTF-8
Codec ID                                 : S_TEXT/UTF8
Codec ID/Info                            : UTF-8 Plain Text
Title                                    : Dutch full
Language                                 : Dutch
Default                                  : No
Forced                                   : No

Text #4
ID                                       : 8
Format                                   : UTF-8
Codec ID                                 : S_TEXT/UTF8
Codec ID/Info                            : UTF-8 Plain Text
Title                                    : Fin full
Language                                 : Finnish
Default                                  : No
Forced                                   : No

Text #5
ID                                       : 9
Format                                   : UTF-8
Codec ID                                 : S_TEXT/UTF8
Codec ID/Info                            : UTF-8 Plain Text
Title                                    : Fre full
Language                                 : French
Default                                  : No
Forced                                   : No

Text #6
ID                                       : 10
Format                                   : UTF-8
Codec ID                                 : S_TEXT/UTF8
Codec ID/Info                            : UTF-8 Plain Text
Title                                    : Ger full
Language                                 : German
Default                                  : No
Forced                                   : No

Text #7
ID                                       : 11
Format                                   : UTF-8
Codec ID                                 : S_TEXT/UTF8
Codec ID/Info                            : UTF-8 Plain Text
Title                                    : Spa full
Language                                 : Spanish
Default                                  : No
Forced                                   : No

Text #8
ID                                       : 12
Format                                   : UTF-8
Codec ID                                 : S_TEXT/UTF8
Codec ID/Info                            : UTF-8 Plain Text
Title                                    : Swe full
Language                                 : Swedish
Default                                  : No
Forced                                   : No




Джерела та подяки:
ріп відео - RuDe (HDbits); українська доріжка - taraskill1 - зведення, POMEO - запис з ТБ; українізований постер - Gelios (всі - Гуртом).


ЗАЛИШАЙТЕСЬ ЯКОМОГА ДОВШЕ НА РОЗДАЧІ!

СКАЧАВ САМ - ДАЙ СКАЧАТИ ІНШИМ


Срібний реліз (на рейтинг впливає 50% завантаженого)
 Трекер:    Зареєстрований   

Завантажити / скачати фільм українською



відео для новачків



 Зареєстрований:   2014-06-30 17:26
 Розмір:   4.66 GB 
 Оцінка фільму:   4.9/10 (Голосів: 20)
   
Інші релізи
   На чужій смузі / Changing Lanes (2002) Ukr/Eng taraskill1  1 / 0   1.59 GB   2014-06-30 10:50 
   На чужій смузі / Changing Lanes (2002) Ukr/Eng | Sub Eng Lan  2 / 1   1.73 GB   2011-11-30 18:02 
lcds 
Свій


З нами з: 08.07.13
Востаннє: 02.12.16
Повідомлень: 111

2014-07-26 11:07  
Повчальний фільм. Гарна гра акторів.
Тесть Банека дурить себе арифметичним правилом..., та як на мене, поганий вчинок скорше не чорна пляма, яку можна перекрити більшою по площі білою, а діра(-очка), яку як не латай - рубець лишиться...

Ваш часовий пояс: GMT + 2 Години

Нова тема   Відповісти