Завантажити та скачати торренти українською


Казино / Casino (1995) 720p Ukr/Eng | Sub Ukr/Eng

Нові коментарі

Нова тема   Відповісти
Автор Повідомлення
Anonymous 







2014-06-30 10:09  
Казино / Casino (1995) 720p Ukr/Eng | Sub Ukr/Eng



Жанр: біографічний, кримінальний, драма
Країна: США, Франція

Top 250 #142

Золотий глобус за найкращу жіночу роль (драма) (Шерон Стоун)
Усі нагороди та номінації


Золотий глобус, 1996 рік
Переможець (1):
Найкраща жіноча роль (драма) (Шерон Стоун)


Номінації (1):
Найкращий режисер (Мартін Скорсезе)



Оскар, 1996 рік
Номінації (1):
Найкраща жіноча роль (Шерон Стоун)



Премія каналу MTV, рік
Номінації (2):
Найкраща жіноча роль (Шерон Стоун),
Найкращий злодій (Джо Пеші)


Кінокомпанія: Universal Pictures, Syalis DA, Légende Entreprises
Режисер: Мартін Скорсезе / Martin Scorsese
Актори: Роберт Де Ніро / Robert De Niro, Шерон Стоун / Sharon Stone, Джо Пеші / Joe Pesci, James Woods / Джеймс Вудс, Дон Ріклз / Don Rickles, Алан Кінґ / Alan King, Кевін Поллак / Kevin Pollak, Л. К. Джонс / L.Q. Jones, Дік Смотерз / Dick Smothers, Френк Вінсент / Frank Vincent

Сюжет:
Ніхто не може порівнятися з Семом Ротстіном. Ніхто не вміє заробляти гроші, як він. Ніхто не вміє працювати так самовіддано і акуратно, як трудяга Сем. За свої незаперечні переваги Ротстін одержав кличку "Туз". І саме тому боси мафії вирішили відправити Туза заправляти величезним шикарним казино в Лас-Вегасі. А щоб Сему ніхто не заважав "працювати", мафіозі відправили вслід за Тузом друга дитинства Ротстіна - Ніккі Санторо, пропащого бандита і безжального головоріза. В Лас-Вегасі Туз як завжди з блиском виконував свою роботу. Казино процвітало, водопад грошей безупинно лився в кишені задоволених гангстерів-покровителів. Міські ватажки знаходилися "на постачанні" у мафії, поліцейські і суди були куплені, і, здавалося, ніщо не може затьмарити життя Туза. Але Господь розпорядився інакше. Непохитній імперії Сема Ротстіна судилося потонути в трагедії і крові.


Рейтинг MPAA: R - особам до 17 років обов'язкова присутність батьків або дорослого опікуна
Вікова категорія: 18+

Тривалість: 02:58:20
Якість: 720p
Відео:
кодек:
розмір кадру: 1280x544
бітрейт: 5448 кбіт/с

Аудіо # 1:
мова: українська
переклад: багатоголосий закадровий
кодек: 2.0
бітрейт: 192 кб/с

Аудіо # 2:
мова: англійська
переклад: оригінал
кодек: 5.1
бітрейт: 1536 кб/с

Аудіо # 3:
мова: англійська
переклад: коментарі режисера Мартіна Скорсезе
кодек: 2.0
бітрейт: 192 кб/с

Субтитри # 1:
мова: українська (повні)
тип: програмні (м'які)
формат: *.srt

Субтитри # 2:
мова: англійська (повні SDH)
тип: програмні (м'які)
формат: *.ass

Субтитри # 3-4:
мова: англійська (повні з Blu-ray CEE, коментарі режисера Мартіна Скорсезе)
тип: програмні (м'які)
формат: *.srt
MediaInfo
General
Unique ID : 223983114840080719792500627575926872323 (0xA881942BA1A91CF699C1C76CECA2D903)
Complete name : Casino (1995) [Ukr,Eng sub.Ukr,Eng] 720p [Hurtom].mkv
Format : Matroska
Format version : Version 4 / Version 2
File size : 9.15 GiB
Duration : 2h 58mn
Overall bit rate : 7 344 Kbps
Movie name : Казино / Casino (1995) 720p [Hurtom]
Encoded date : UTC 2014-06-30 07:35:16
Writing application : mkvmerge v7.0.0 ('Where We Going') 64bit built on Jun 9 2014 15:16:27
Writing library : libebml v1.3.0 + libmatroska v1.4.1
DURATION : 02:51:36.790000000
NUMBER_OF_FRAMES : 2781
NUMBER_OF_BYTES : 188094
_STATISTICS_WRITING_APP : mkvmerge v7.0.0 ('Where We Going') 64bit built on Jun 9 2014 15:16:27
_STATISTICS_WRITING_DATE_UTC : 2014-06-30 07:35:16
_STATISTICS_TAGS : BPS DURATION NUMBER_OF_FRAMES NUMBER_OF_BYTES
Attachment : Yes / Yes / Yes / Yes / Yes / Yes / Yes

Video
ID : 1
Format : AVC
Format/Info : Advanced Video Codec
Format profile : [email protected]
Format settings, CABAC : Yes
Format settings, ReFrames : 10 frames
Codec ID : V_MPEG4/ISO/AVC
Duration : 2h 58mn
Bit rate : 5 448 Kbps
Width : 1 280 pixels
Height : 544 pixels
Display aspect ratio : 2.35:1
Frame rate mode : Constant
Frame rate : 23.976 fps
Color space : YUV
Chroma subsampling : 4:2:0
Bit depth : 8 bits
Scan type : Progressive
Bits/(Pixel*Frame) : 0.326
Stream size : 6.61 GiB (72%)
Title : Казино / Casino (1995) 720p [HDxT]
Writing library : core 65 r999M cc51047
Encoding settings : cabac=1 / ref=10 / deblock=1:-3:-3 / analyse=0x3:0x113 / me=umh / subme=9 / psy_rd=0.8:0.6 / mixed_ref=1 / me_range=24 / chroma_me=1 / trellis=2 / 8x8dct=1 / cqm=2 / deadzone=21,11 / chroma_qp_offset=-5 / threads=6 / nr=0 / decimate=0 / mbaff=0 / bframes=4 / b_pyramid=1 / b_adapt=2 / b_bias=0 / direct=3 / wpredb=1 / keyint=250 / keyint_min=25 / scenecut=40(pre) / rc=2pass / bitrate=5448 / ratetol=1.0 / qcomp=0.60 / qpmin=10 / qpmax=51 / qpstep=4 / cplxblur=20.0 / qblur=0.5 / ip_ratio=1.40 / pb_ratio=1.30 / aq=1:0.60
Language : English
Default : Yes
Forced : Yes
DURATION : 02:58:20.140000000
NUMBER_OF_FRAMES : 256547
NUMBER_OF_BYTES : 7287050897
_STATISTICS_WRITING_APP : mkvmerge v7.0.0 ('Where We Going') 64bit built on Jun 9 2014 15:16:27
_STATISTICS_WRITING_DATE_UTC : 2014-06-30 07:35:16
_STATISTICS_TAGS : BPS DURATION NUMBER_OF_FRAMES NUMBER_OF_BYTES

Audio #1
ID : 2
Format : AC-3
Format/Info : Audio Coding 3
Mode extension : CM (complete main)
Format settings, Endianness : Big
Codec ID : A_AC3
Duration : 2h 58mn
Bit rate mode : Constant
Bit rate : 192 Kbps
Channel(s) : 2 channels
Channel positions : Front: L R
Sampling rate : 48.0 KHz
Bit depth : 16 bits
Compression mode : Lossy
Stream size : 245 MiB (3%)
Title : MVO [1+1] 2.0 192 Kbps [Hurtom-karvai0]
Language : Ukrainian
Default : Yes
Forced : Yes

Audio #2
ID : 3
Format :
Format/Info : Digital Theater Systems
Mode : 16
Format settings, Endianness : Big
Codec ID : A_DTS
Duration : 2h 58mn
Bit rate mode : Constant
Bit rate : 1 509 Kbps
Channel(s) : 6 channels
Channel positions : Front: L C R, Side: L R, LFE
Sampling rate : 48.0 KHz
Bit depth : 24 bits
Compression mode : Lossy
Stream size : 1.88 GiB (21%)
Title : Original 5.1 1536 Kbps
Language : English
Default : No
Forced : No

Audio #3
ID : 4
Format : AC-3
Format/Info : Audio Coding 3
Format profile : Dolby Digital
Mode extension : CM (complete main)
Format settings, Endianness : Big
Codec ID : A_AC3
Duration : 2h 58mn
Bit rate mode : Constant
Bit rate : 192 Kbps
Channel(s) : 2 channels
Channel positions : Front: L R
Sampling rate : 48.0 KHz
Bit depth : 16 bits
Compression mode : Lossy
Stream size : 245 MiB (3%)
Title : Commentary with director Martin Scorsese
Language : English
Default : No
Forced : No

Text #1
ID : 5
Format : UTF-8
Codec ID : S_TEXT/UTF8
Codec ID/Info : UTF-8 Plain Text
Title : Ukr full [Hurtom-Lan]
Language : Ukrainian
Default : No
Forced : No

Text #2
ID : 6
Format : ASS
Codec ID : S_TEXT/ASS
Codec ID/Info : Advanced Sub Station Alpha
Compression mode : Lossless
Title : Eng full ASS [SDH]
Language : English
Default : No
Forced : No

Text #3
ID : 7
Format : UTF-8
Codec ID : S_TEXT/UTF8
Codec ID/Info : UTF-8 Plain Text
Title : Eng full [Blu-ray CEE]
Language : English
Default : No
Forced : No

Text #4
ID : 8
Format : UTF-8
Codec ID : S_TEXT/UTF8
Codec ID/Info : UTF-8 Plain Text
Title : Commentary with director Martin Scorsese
Language : English
Default : No
Forced : No




Джерела та подяки:
ріп відео - HDxT (hd-bits); українська доріжка - karvai0 - зведення, Sando7, xslim, OlegCena,MAKAPOHHIK - запис з ТБ; українські субтитри - Lan (всі - Гуртом).


ЗАЛИШАЙТЕСЬ ЯКОМОГА ДОВШЕ НА РОЗДАЧІ!

СКАЧАВ САМ - ДАЙ СКАЧАТИ ІНШИМ


Срібний реліз (на рейтинг впливає 50% завантаженого)
 Трекер:    Зареєстрований   

Завантажити / скачати фільм українською



відео для новачків



 Зареєстрований:   2014-06-30 10:09
 Розмір:   9.15 GB 
 Оцінка фільму:   5.7/10 (Голосів: 21)
   
Інші релізи
   Казино / Casino (1995) Ukr/Eng | Sub Ukr/Eng karvai0  14 / 0   2.9 GB   2014-06-29 23:53 
Olkos 
VIP


З нами з: 07.03.09
Востаннє: 07.12.16
Повідомлень: 534

2016-06-26 21:06  
Чудовий фільм! Хоча і йде майже 3 години, але подивився на одному подиху.
Ваш часовий пояс: GMT + 2 Години

Нова тема   Відповісти